<?xml version="1.0" standalone="no"?>
<!DOCTYPE svg PUBLIC "-//W3C//DTD SVG 1.1//EN" "http://www.w3.org/Graphics/SVG/1.1/DTD/svg11.dtd" >
<svg xmlns="http://www.w3.org/2000/svg">
    <defs>
        <font id="ApercuPro-Bold">
            <font-face font-family="Apercu Pro"
                       units-per-em="1000"
                       ascent="1104"
                       descent="-279"
                       bbox="-75 -266 1227 1104"
                    />
            <missing-glyph horiz-adv-x="0" />
            
            <glyph glyph-name="#" unicode="&#x23;" horiz-adv-x="671" d=" M105,507 L243,507 L283,700 L383,700 L343,507 L457,507 L496,700 L596,700 L557,507 L671,507 L671,409 L537,409 L513,291 L631,291 L631,193 L493,193 L453,0 L353,0 L393,193 L279,193 L240,0 L140,0 L179,193 L65,193 L65,291 L199,291 L223,409 L105,409 M299,291 L413,291 L437,409 L323,409"/> 
            <glyph glyph-name="$" unicode="&#x24;" horiz-adv-x="500" d=" M365,514 Q345,553 322,570.5 Q299,588 268,588 Q239,588 220,570 Q201,552 201,524 Q201,494 223,473 Q245,452 278.5,434.5 Q312,417 350.5,399 Q389,381 422.5,356.5 Q456,332 478,297 Q500,262 500,210 Q500,122 455.5,68 Q411,14 336,-2 L336,-90 L214,-90 L214,0 Q178,9 148,27 Q118,45 95,70 Q72,95 57,125 Q42,155 35,188 L140,254 Q148,226 160,200 Q172,174 189,154.5 Q206,135 228,123.5 Q250,112 279,112 Q320,112 345,133.5 Q370,155 370,203 Q370,232 348.5,251 Q327,270 294,286.5 Q261,303 223.5,320.5 Q186,338 153,363.5 Q120,389 98.5,425.5 Q77,462 77,518 Q77,584 114.5,634 Q152,684 214,701 L214,790 L336,790 L336,699 Q427,673 470,581"/> 
            <glyph glyph-name="%" unicode="&#x25;" horiz-adv-x="786" d=" M52,548 Q52,582 64.5,611 Q77,640 98.5,661.5 Q120,683 150,695.5 Q180,708 216,708 Q252,708 282,695.5 Q312,683 333.5,661.5 Q355,640 367.5,611 Q380,582 380,548 Q380,514 367.5,485 Q355,456 333.5,434.5 Q312,413 282,400.5 Q252,388 216,388 Q180,388 150,400.5 Q120,413 98.5,434.5 Q77,456 64.5,485 Q52,514 52,548 M154,548 Q154,520 170.5,501.5 Q187,483 216,483 Q245,483 261.5,501.5 Q278,520 278,548 Q278,576 261.5,594.5 Q245,613 216,613 Q187,613 170.5,594.5 Q154,576 154,548 M458,152 Q458,186 470.5,215 Q483,244 504.5,265.5 Q526,287 556,299.5 Q586,312 622,312 Q658,312 688,299.5 Q718,287 739.5,265.5 Q761,244 773.5,215 Q786,186 786,152 Q786,118 773.5,89 Q761,60 739.5,38.5 Q718,17 688,4.5 Q658,-8 622,-8 Q586,-8 556,4.5 Q526,17 504.5,38.5 Q483,60 470.5,89 Q458,118 458,152 M560,152 Q560,124 576.5,105.5 Q593,87 622,87 Q651,87 667.5,105.5 Q684,124 684,152 Q684,180 667.5,198.5 Q651,217 622,217 Q593,217 576.5,198.5 Q560,180 560,152 M727,681 L189,-38 L117,20 L655,738"/> 
            <glyph glyph-name="&amp;" unicode="&#x26;" horiz-adv-x="660" d=" M288,-8 Q241,-8 200.5,6.5 Q160,21 130,48.5 Q100,76 83,115.5 Q66,155 66,206 Q66,245 77,278.5 Q88,312 106.5,339 Q125,366 149,386.5 Q173,407 199,422 Q178,451 164.5,486.5 Q151,522 151,559 Q151,590 162.5,617 Q174,644 195,664 Q216,684 246,696 Q276,708 314,708 Q353,708 383,696 Q413,684 434,664.5 Q455,645 465.5,620 Q476,595 476,568 Q476,536 466.5,509 Q457,482 441.5,459.5 Q426,437 405,419.5 Q384,402 362,390 L477,239 Q491,266 503,295 Q515,324 528,365 L600,281 Q592,246 579,211.5 Q566,177 548,146 L660,0 L513,0 L472,54 Q436,25 390.5,8.5 Q345,-8 288,-8 M289,107 Q327,107 353,116.5 Q379,126 403,146 L262,334 Q226,312 206,279 Q186,246 186,208 Q186,166 213.5,136.5 Q241,107 289,107 M314,602 Q291,602 276,588 Q261,574 261,551 Q261,528 270,510 Q279,492 293,474 Q305,479 317.5,486.5 Q330,494 340.5,504 Q351,514 357.5,526.5 Q364,539 364,555 Q364,576 350.5,589 Q337,602 314,602"/> 
            <glyph glyph-name="'" unicode="&#x27;" horiz-adv-x="221" d=" M80,708 L221,708 L190,459 L111,459"/> 
            <glyph glyph-name="(" unicode="&#x28;" horiz-adv-x="276" d=" M276,750 Q254,709 237,666.5 Q220,624 208,576 Q196,528 190,472 Q184,416 184,350 Q184,280 190,224 Q196,168 208,120.5 Q220,73 237,31.5 Q254,-10 276,-50 L169,-50 Q149,-14 130,25 Q111,64 96.5,111 Q82,158 73,216.5 Q64,275 64,350 Q64,425 73,483.5 Q82,542 96.5,589 Q111,636 130,675 Q149,714 169,750"/> 
            <glyph glyph-name=")" unicode="&#x29;" horiz-adv-x="236" d=" M131,750 Q151,714 170,675 Q189,636 203.5,589 Q218,542 227,483.5 Q236,425 236,350 Q236,275 227,216.5 Q218,158 203.5,111 Q189,64 170,25 Q151,-14 131,-50 L24,-50 Q46,-10 63,31.5 Q80,73 92,120.5 Q104,168 110,224 Q116,280 116,350 Q116,416 110,472 Q104,528 92,576 Q80,624 63,666.5 Q46,709 24,750"/> 
            <glyph glyph-name="*" unicode="&#x2A;" horiz-adv-x="436" d=" M294,595 L403,631 L436,532 L327,495 L394,404 L309,341 L243,434 L177,341 L92,404 L159,495 L50,532 L83,631 L192,595 L192,708 L294,708"/> 
            <glyph glyph-name="+" unicode="&#x2B;" horiz-adv-x="531" d=" M347,555 L347,371 L531,371 L531,263 L347,263 L347,79 L239,79 L239,263 L55,263 L55,371 L239,371 L239,555"/> 
            <glyph glyph-name="," unicode="&#x2C;" horiz-adv-x="299" d=" M132,146 L299,146 L144,-156 L57,-156"/> 
            <glyph glyph-name="-" unicode="&#x2D;" horiz-adv-x="438" d=" M65,371 L438,371 L438,263 L65,263"/> 
            <glyph glyph-name="." unicode="&#x2E;" horiz-adv-x="248" d=" M80,78 Q80,114 104,138 Q128,162 164,162 Q200,162 224,138 Q248,114 248,78 Q248,42 224,18 Q200,-6 164,-6 Q128,-6 104,18 Q80,42 80,78"/> 
            <glyph glyph-name="/" unicode="&#x2F;" horiz-adv-x="564" d=" M564,750 L128,-50 L8,-50 L444,750"/> 
            <glyph glyph-name="0" unicode="&#x30;" horiz-adv-x="578" d=" M320,708 Q383,708 431,683.5 Q479,659 511.5,613 Q544,567 561,500.5 Q578,434 578,350 Q578,266 561,199.5 Q544,133 511.5,87 Q479,41 431,16.5 Q383,-8 320,-8 Q257,-8 209,16.5 Q161,41 128.5,87 Q96,133 79,199.5 Q62,266 62,350 Q62,434 79,500.5 Q96,567 128.5,613 Q161,659 209,683.5 Q257,708 320,708 M320,592 Q251,592 218.5,530 Q186,468 186,350 Q186,232 218.5,170 Q251,108 320,108 Q389,108 421.5,170 Q454,232 454,350 Q454,468 421.5,530 Q389,592 320,592"/> 
            <glyph glyph-name="1" unicode="&#x31;" horiz-adv-x="328" d=" M328,700 L328,0 L202,0 L202,524 L68,444 L68,580 L273,700"/> 
            <glyph glyph-name="2" unicode="&#x32;" horiz-adv-x="509" d=" M64,50 L314,373 Q346,413 357,441.5 Q368,470 368,500 Q368,543 346.5,567.5 Q325,592 282,592 Q244,592 220.5,568.5 Q197,545 191,500 L75,522 Q78,562 94.5,596 Q111,630 138.5,655 Q166,680 203.5,694 Q241,708 285,708 Q335,708 374,693 Q413,678 439.5,651 Q466,624 480,586.5 Q494,549 494,505 Q494,463 480,422 Q466,381 434,339 L263,116 L509,116 L509,0 L64,0"/> 
            <glyph glyph-name="3" unicode="&#x33;" horiz-adv-x="527" d=" M177,210 Q188,163 215,135.5 Q242,108 290,108 Q339,108 370,139.5 Q401,171 401,225 Q401,286 370,317 Q339,348 291,348 Q274,348 260,344.5 Q246,341 230,333 L180,403 L312,584 L89,584 L89,700 L490,700 L490,656 L325,433 Q332,434 338,434.5 Q344,435 353,435 Q393,435 425.5,420 Q458,405 480.5,377.5 Q503,350 515,311.5 Q527,273 527,227 Q527,173 509,129.5 Q491,86 459,55.5 Q427,25 384,8.5 Q341,-8 290,-8 Q241,-8 200,7 Q159,22 128.5,49 Q98,76 79,113 Q60,150 56,194"/> 
            <glyph glyph-name="4" unicode="&#x34;" horiz-adv-x="564" d=" M360,130 L59,130 L59,194 L354,700 L486,700 L486,246 L564,246 L564,130 L486,130 L486,0 L360,0 M360,246 L360,513 L212,246"/> 
            <glyph glyph-name="5" unicode="&#x35;" horiz-adv-x="526" d=" M191,205 Q197,176 207.5,157.5 Q218,139 232,128 Q246,117 262.5,112.5 Q279,108 296,108 Q347,108 373.5,140 Q400,172 400,232 Q400,291 372,322 Q344,353 290,353 Q255,353 223,335.5 Q191,318 166,290 L87,306 L126,700 L486,700 L486,584 L229,584 L213,438 Q233,450 258,457 Q283,464 312,464 Q367,464 407,447 Q447,430 473.5,399.5 Q500,369 513,326 Q526,283 526,232 Q526,179 509.5,135 Q493,91 463,59 Q433,27 390.5,9.5 Q348,-8 296,-8 Q251,-8 212.5,5.5 Q174,19 144,44 Q114,69 95,104 Q76,139 72,183"/> 
            <glyph glyph-name="6" unicode="&#x36;" horiz-adv-x="538" d=" M312,448 Q360,448 401.5,431.5 Q443,415 473,385 Q503,355 520.5,313 Q538,271 538,220 Q538,171 520.5,129.5 Q503,88 471.5,57.5 Q440,27 397,9.5 Q354,-8 304,-8 Q254,-8 211.5,9 Q169,26 137.5,56.5 Q106,87 88,129 Q70,171 70,220 Q70,252 79.5,284.5 Q89,317 104,343 L308,708 L448,708 L296,448 M304,332 Q259,332 227.5,303 Q196,274 196,220 Q196,194 204.5,173.5 Q213,153 228,138.5 Q243,124 262.5,116 Q282,108 304,108 Q349,108 380.5,138.5 Q412,169 412,220 Q412,274 380.5,303 Q349,332 304,332"/> 
            <glyph glyph-name="7" unicode="&#x37;" horiz-adv-x="473" d=" M473,648 L209,0 L85,0 L324,584 L49,584 L49,700 L473,700"/> 
            <glyph glyph-name="8" unicode="&#x38;" horiz-adv-x="525" d=" M297,708 Q342,708 379,693 Q416,678 442.5,651.5 Q469,625 483.5,590.5 Q498,556 498,517 Q498,474 481,438 Q464,402 432,377 Q475,353 500,311 Q525,269 525,209 Q525,158 506.5,117.5 Q488,77 456.5,49.5 Q425,22 384,7 Q343,-8 297,-8 Q251,-8 210,7 Q169,22 137.5,49.5 Q106,77 87.5,117.5 Q69,158 69,209 Q69,269 93.5,311 Q118,353 161,377 Q129,402 112.5,438 Q96,474 96,517 Q96,556 110.5,590.5 Q125,625 151.5,651.5 Q178,678 215,693 Q252,708 297,708 M297,310 Q254,310 224.5,284 Q195,258 195,209 Q195,160 224.5,134 Q254,108 297,108 Q340,108 369.5,134 Q399,160 399,209 Q399,258 369.5,284 Q340,310 297,310 M297,602 Q259,602 236,578 Q213,554 213,515 Q213,475 236,450.5 Q259,426 297,426 Q335,426 358,450.5 Q381,475 381,515 Q381,554 358,578 Q335,602 297,602"/> 
            <glyph glyph-name="9" unicode="&#x39;" horiz-adv-x="539" d=" M297,252 Q249,252 207.5,268.5 Q166,285 136,315 Q106,345 88.5,387 Q71,429 71,480 Q71,529 88.5,570.5 Q106,612 137.5,642.5 Q169,673 212,690.5 Q255,708 305,708 Q354,708 397,691 Q440,674 471.5,643.5 Q503,613 521,571 Q539,529 539,480 Q539,448 529.5,415.5 Q520,383 505,357 L301,-8 L161,-8 L313,252 M305,368 Q350,368 381.5,397 Q413,426 413,480 Q413,505 404.5,526 Q396,547 381,561.5 Q366,576 346.5,584 Q327,592 305,592 Q260,592 228.5,561.5 Q197,531 197,480 Q197,426 228.5,397 Q260,368 305,368"/> 
            <glyph glyph-name=":" unicode="&#x3A;" horiz-adv-x="250" d=" M82,78 Q82,114 106,138 Q130,162 166,162 Q202,162 226,138 Q250,114 250,78 Q250,42 226,18 Q202,-6 166,-6 Q130,-6 106,18 Q82,42 82,78 M82,428 Q82,464 106,488 Q130,512 166,512 Q202,512 226,488 Q250,464 250,428 Q250,392 226,368 Q202,344 166,344 Q130,344 106,368 Q82,392 82,428"/> 
            <glyph glyph-name=";" unicode="&#x3B;" horiz-adv-x="254" d=" M87,146 L254,146 L99,-156 L12,-156 M81,428 Q81,464 105,488 Q129,512 165,512 Q201,512 225,488 Q249,464 249,428 Q249,392 225,368 Q201,344 165,344 Q129,344 105,368 Q81,392 81,428"/> 
            <glyph glyph-name="&lt;" unicode="&#x3C;" horiz-adv-x="436" d=" M45,368 L436,572 L436,441 L184,310 L436,179 L436,48 L45,252"/> 
            <glyph glyph-name="=" unicode="&#x3D;" horiz-adv-x="527" d=" M90,454 L527,454 L527,346 L90,346 M90,274 L527,274 L527,166 L90,166"/> 
            <glyph glyph-name="&gt;" unicode="&#x3E;" horiz-adv-x="442" d=" M442,252 L51,48 L51,179 L303,310 L51,441 L51,572 L442,368"/> 
            <glyph glyph-name="?" unicode="&#x3F;" horiz-adv-x="418" d=" M376,316 Q359,268 322,240.5 Q285,213 231,213 Q171,213 132,248 Q93,283 93,341 Q93,392 123,422.5 Q153,453 201,471 Q230,482 249.5,492 Q269,502 280.5,511.5 Q292,521 296.5,531.5 Q301,542 301,554 Q301,580 282,592 Q263,604 236,604 Q171,604 151,537 L42,555 Q48,586 63,614 Q78,642 102,663 Q126,684 159,696 Q192,708 233,708 Q317,708 367.5,665 Q418,622 418,550 Q418,520 408.5,498 Q399,476 381.5,459.5 Q364,443 338.5,430 Q313,417 280,404 Q255,394 238.5,386.5 Q222,379 212.5,371.5 Q203,364 199,356 Q195,348 195,338 Q195,321 205.5,312 Q216,303 231,303 Q252,303 266,315.5 Q280,328 288,349 M148,76 Q148,111 172,135.5 Q196,160 231,160 Q266,160 290,135.5 Q314,111 314,76 Q314,41 290,17.5 Q266,-6 231,-6 Q196,-6 172,17.5 Q148,41 148,76"/> 
            <glyph glyph-name="@" unicode="&#x40;" horiz-adv-x="858" d=" M247,296 Q247,340 261.5,380 Q276,420 304,450 Q332,480 372,498 Q412,516 463,516 Q495,516 520.5,506.5 Q546,497 567,478 L578,509 L661,509 L641,290 Q640,279 639.5,272.5 Q639,266 639,261 Q639,234 648.5,222 Q658,210 678,210 Q695,210 706.5,221 Q718,232 725,251.5 Q732,271 735,298 Q738,325 738,357 Q738,423 718,472 Q698,521 662.5,553 Q627,585 578,600.5 Q529,616 471,616 Q417,616 365,596.5 Q313,577 271.5,538 Q230,499 205,440 Q180,381 180,301 Q180,226 206.5,171 Q233,116 274.5,80 Q316,44 367.5,26 Q419,8 470,8 Q493,8 518,9.5 Q543,11 571.5,16 Q600,21 633.5,32 Q667,43 708,63 L747,-34 Q711,-51 678.5,-62.5 Q646,-74 613,-81 Q580,-88 545,-91 Q510,-94 470,-94 Q378,-94 302.5,-64 Q227,-34 173,18.5 Q119,71 89.5,143.5 Q60,216 60,301 Q60,396 91,473 Q122,550 177,604.5 Q232,659 308.5,688.5 Q385,718 476,718 Q570,718 641.5,691 Q713,664 761,615 Q809,566 833.5,499 Q858,432 858,352 Q858,296 844,251 Q830,206 805,174.5 Q780,143 745,125.5 Q710,108 668,108 Q629,108 599.5,128.5 Q570,149 559,177 Q534,146 500.5,127 Q467,108 425,108 Q383,108 349.5,122 Q316,136 293.5,161 Q271,186 259,220.5 Q247,255 247,296 M458,414 Q439,414 422,405.5 Q405,397 391.5,381.5 Q378,366 370,343 Q362,320 362,291 Q362,210 434,210 Q456,210 475.5,219 Q495,228 509,244.5 Q523,261 531,282.5 Q539,304 539,330 Q539,370 518,392 Q497,414 458,414"/> 
            <glyph glyph-name="A" unicode="&#x41;" horiz-adv-x="609" d=" M418,165 L196,165 L145,0 L5,0 L242,700 L372,700 L609,0 L469,0 M233,285 L381,285 L307,528"/> 
            <glyph glyph-name="B" unicode="&#x42;" horiz-adv-x="582" d=" M346,700 Q391,700 427.5,688.5 Q464,677 490.5,653.5 Q517,630 531.5,594.5 Q546,559 546,511 Q546,468 528,433.5 Q510,399 477,382 Q527,362 554.5,320 Q582,278 582,211 Q582,108 520.5,54 Q459,0 351,0 L90,0 L90,700 M220,580 L220,428 L339,428 Q378,428 399.5,444.5 Q421,461 421,504 Q421,547 399.5,563.5 Q378,580 336,580 M220,308 L220,120 L339,120 Q400,120 426,144.5 Q452,169 452,214 Q452,259 426,283.5 Q400,308 339,308"/> 
            <glyph glyph-name="C" unicode="&#x43;" horiz-adv-x="669" d=" M552,466 Q532,519 492,553.5 Q452,588 379,588 Q338,588 302,573.5 Q266,559 239,529.5 Q212,500 196,455.5 Q180,411 180,350 Q180,289 196,244.5 Q212,200 239,170.5 Q266,141 302,126.5 Q338,112 379,112 Q452,112 492,146.5 Q532,181 552,234 L669,204 Q644,103 569,47.5 Q494,-8 379,-8 Q313,-8 253.5,15 Q194,38 148,83 Q102,128 75,195 Q48,262 48,350 Q48,438 75,505 Q102,572 148,617 Q194,662 253.5,685 Q313,708 379,708 Q494,708 569,652.5 Q644,597 669,496"/> 
            <glyph glyph-name="D" unicode="&#x44;" horiz-adv-x="635" d=" M90,0 L90,700 L309,700 Q371,700 429.5,680 Q488,660 534,617 Q580,574 607.5,508 Q635,442 635,350 Q635,258 607.5,192 Q580,126 534,83 Q488,40 429.5,20 Q371,0 309,0 M268,120 Q310,120 352,130 Q394,140 427.5,165.5 Q461,191 482,235.5 Q503,280 503,350 Q503,420 482,464.5 Q461,509 427.5,534.5 Q394,560 352,570 Q310,580 268,580 L220,580 L220,120"/> 
            <glyph glyph-name="E" unicode="&#x45;" horiz-adv-x="533" d=" M523,700 L523,580 L220,580 L220,433 L463,433 L463,313 L220,313 L220,120 L533,120 L533,0 L90,0 L90,700"/> 
            <glyph glyph-name="F" unicode="&#x46;" horiz-adv-x="533" d=" M533,700 L533,580 L220,580 L220,420 L472,420 L472,300 L220,300 L220,0 L90,0 L90,700"/> 
            <glyph glyph-name="G" unicode="&#x47;" horiz-adv-x="672" d=" M541,75 Q521,44 479.5,18 Q438,-8 371,-8 Q308,-8 249.5,14.5 Q191,37 146,81.5 Q101,126 74.5,193 Q48,260 48,350 Q48,440 75.5,507 Q103,574 149.5,618.5 Q196,663 256,685.5 Q316,708 381,708 Q439,708 487,691.5 Q535,675 571.5,645.5 Q608,616 633,575.5 Q658,535 672,487 L553,456 Q528,516 486.5,552 Q445,588 381,588 Q339,588 302.5,573.5 Q266,559 238.5,530 Q211,501 195.5,456 Q180,411 180,350 Q180,287 195.5,242 Q211,197 238,168 Q265,139 301,125.5 Q337,112 378,112 Q417,112 445,124 Q473,136 492,155 Q511,174 521.5,197.5 Q532,221 535,245 L405,245 L405,353 L661,353 L661,0 L552,0"/> 
            <glyph glyph-name="H" unicode="&#x48;" horiz-adv-x="630" d=" M90,700 L220,700 L220,434 L500,434 L500,700 L630,700 L630,0 L500,0 L500,314 L220,314 L220,0 L90,0"/> 
            <glyph glyph-name="I" unicode="&#x49;" horiz-adv-x="220" d=" M220,0 L90,0 L90,700 L220,700"/> 
            <glyph glyph-name="J" unicode="&#x4A;" horiz-adv-x="441" d=" M130,200 Q139,153 161,132.5 Q183,112 218,112 Q239,112 256,117.5 Q273,123 285,137 Q297,151 304,174 Q311,197 311,232 L311,700 L441,700 L441,246 Q441,175 425.5,126.5 Q410,78 381,48 Q352,18 311,5 Q270,-8 218,-8 Q126,-8 69.5,40 Q13,88 2,173"/> 
            <glyph glyph-name="K" unicode="&#x4B;" horiz-adv-x="639" d=" M220,700 L220,440 L459,700 L619,700 L335,387 L639,0 L474,0 L220,334 L220,0 L90,0 L90,700"/> 
            <glyph glyph-name="L" unicode="&#x4C;" horiz-adv-x="517" d=" M220,700 L220,120 L517,120 L517,0 L90,0 L90,700"/> 
            <glyph glyph-name="M" unicode="&#x4D;" horiz-adv-x="712" d=" M90,700 L236,700 L401,263 L566,700 L712,700 L712,0 L582,0 L582,432 L448,64 L354,64 L220,432 L220,0 L90,0"/> 
            <glyph glyph-name="N" unicode="&#x4E;" horiz-adv-x="614" d=" M614,700 L614,0 L477,0 L220,462 L220,0 L90,0 L90,700 L227,700 L484,238 L484,700"/> 
            <glyph glyph-name="O" unicode="&#x4F;" horiz-adv-x="708" d=" M378,708 Q444,708 504,686 Q564,664 609.5,620 Q655,576 681.5,508.5 Q708,441 708,350 Q708,259 681.5,191.5 Q655,124 609.5,80 Q564,36 504,14 Q444,-8 378,-8 Q312,-8 252,14 Q192,36 146.5,80 Q101,124 74.5,191.5 Q48,259 48,350 Q48,441 74.5,508.5 Q101,576 146.5,620 Q192,664 252,686 Q312,708 378,708 M378,588 Q339,588 303,574 Q267,560 239.5,531 Q212,502 196,457 Q180,412 180,350 Q180,288 196,243 Q212,198 239.5,169 Q267,140 303,126 Q339,112 378,112 Q417,112 453,126 Q489,140 516.5,169 Q544,198 560,243 Q576,288 576,350 Q576,412 560,457 Q544,502 516.5,531 Q489,560 453,574 Q417,588 378,588"/> 
            <glyph glyph-name="P" unicode="&#x50;" horiz-adv-x="573" d=" M220,274 L220,0 L90,0 L90,700 L354,700 Q409,700 450.5,684 Q492,668 519,639.5 Q546,611 559.5,572 Q573,533 573,487 Q573,441 559.5,402 Q546,363 519,334.5 Q492,306 450.5,290 Q409,274 354,274 M349,394 Q392,394 416.5,416.5 Q441,439 441,487 Q441,535 416.5,557.5 Q392,580 349,580 L220,580 L220,394"/> 
            <glyph glyph-name="Q" unicode="&#x51;" horiz-adv-x="728" d=" M378,708 Q444,708 504,686 Q564,664 609.5,620 Q655,576 681.5,508.5 Q708,441 708,350 Q708,288 696,238 Q684,188 661,148 L728,82 L637,-8 L576,52 Q534,21 483.5,6.5 Q433,-8 378,-8 Q312,-8 252,14 Q192,36 146.5,80 Q101,124 74.5,191.5 Q48,259 48,350 Q48,441 74.5,508.5 Q101,576 146.5,620 Q192,664 252,686 Q312,708 378,708 M485,324 L561,247 Q576,290 576,350 Q576,412 560,457 Q544,502 516.5,531 Q489,560 453,574 Q417,588 378,588 Q339,588 303,574 Q267,560 239.5,531 Q212,502 196,457 Q180,412 180,350 Q180,288 196,243 Q212,198 239.5,169 Q267,140 303,126 Q339,112 378,112 Q438,112 485,142 L394,234"/> 
            <glyph glyph-name="R" unicode="&#x52;" horiz-adv-x="621" d=" M558,501 Q558,432 524.5,382.5 Q491,333 427,313 L621,0 L476,0 L288,302 L220,302 L220,0 L90,0 L90,700 L345,700 Q397,700 437,685 Q477,670 504,644 Q531,618 544.5,581 Q558,544 558,501 M346,422 Q381,422 404.5,440 Q428,458 428,501 Q428,544 404.5,562 Q381,580 346,580 L220,580 L220,422"/> 
            <glyph glyph-name="S" unicode="&#x53;" horiz-adv-x="500" d=" M365,514 Q345,553 322,570.5 Q299,588 268,588 Q239,588 220,570 Q201,552 201,524 Q201,494 223,473 Q245,452 278.5,434.5 Q312,417 350.5,399 Q389,381 422.5,356.5 Q456,332 478,297 Q500,262 500,210 Q500,159 484,118.5 Q468,78 438.5,50 Q409,22 367.5,7 Q326,-8 276,-8 Q228,-8 187.5,7.5 Q147,23 116,50 Q85,77 64,112.5 Q43,148 35,188 L140,254 Q148,226 160,200 Q172,174 189,154.5 Q206,135 228,123.5 Q250,112 279,112 Q320,112 345,133.5 Q370,155 370,203 Q370,232 348.5,251 Q327,270 294,286.5 Q261,303 223.5,320.5 Q186,338 153,363.5 Q120,389 98.5,425.5 Q77,462 77,518 Q77,558 91.5,592.5 Q106,627 131.5,652.5 Q157,678 192,693 Q227,708 268,708 Q338,708 389.5,675 Q441,642 470,581"/> 
            <glyph glyph-name="T" unicode="&#x54;" horiz-adv-x="526" d=" M8,700 L526,700 L526,580 L332,580 L332,0 L202,0 L202,580 L8,580"/> 
            <glyph glyph-name="U" unicode="&#x55;" horiz-adv-x="589" d=" M589,266 Q589,196 569.5,144.5 Q550,93 515.5,59 Q481,25 433,8.5 Q385,-8 328,-8 Q271,-8 223,8.5 Q175,25 140.5,59 Q106,93 86.5,144.5 Q67,196 67,266 L67,700 L197,700 L197,264 Q197,112 328,112 Q459,112 459,264 L459,700 L589,700"/> 
            <glyph glyph-name="V" unicode="&#x56;" horiz-adv-x="603" d=" M236,0 L1,700 L145,700 L302,182 L459,700 L603,700 L368,0"/> 
            <glyph glyph-name="W" unicode="&#x57;" horiz-adv-x="902" d=" M902,700 L719,0 L587,0 L460,412 L333,0 L201,0 L18,700 L156,700 L273,185 L404,626 L516,626 L647,185 L764,700"/> 
            <glyph glyph-name="X" unicode="&#x58;" horiz-adv-x="585" d=" M552,700 L367,378 L585,0 L441,0 L296,253 L151,0 L7,0 L225,378 L40,700 L182,700 L296,502 L410,700"/> 
            <glyph glyph-name="Y" unicode="&#x59;" horiz-adv-x="534" d=" M140,700 L267,428 L394,700 L534,700 L332,298 L332,0 L202,0 L202,298 L0,700"/> 
            <glyph glyph-name="Z" unicode="&#x5A;" horiz-adv-x="525" d=" M47,700 L511,700 L511,640 L211,120 L525,120 L525,0 L30,0 L30,60 L333,580 L47,580"/> 
            <glyph glyph-name="[" unicode="&#x5B;" horiz-adv-x="320" d=" M90,750 L320,750 L320,642 L210,642 L210,58 L320,58 L320,-50 L90,-50"/> 
            <glyph glyph-name="\" unicode="&#x5C;" horiz-adv-x="542" d=" M106,750 L542,-50 L422,-50 L-14,750"/> 
            <glyph glyph-name="]" unicode="&#x5D;" horiz-adv-x="262" d=" M262,-50 L32,-50 L32,58 L142,58 L142,642 L32,642 L32,750 L262,750"/> 
            <glyph glyph-name="^" unicode="&#x5E;" horiz-adv-x="548" d=" M353,700 L548,403 L428,403 L300,592 L171,403 L51,403 L246,700"/> 
            <glyph glyph-name="_" unicode="&#x5F;" horiz-adv-x="480" d=" M25,0 L480,0 L480,-108 L25,-108"/> 
            <glyph glyph-name="`" unicode="&#x60;" horiz-adv-x="245" d=" M245,560 L150,560 L13,708 L181,708"/> 
            <glyph glyph-name="a" unicode="&#x61;" horiz-adv-x="461" d=" M57,372 Q69,435 120,473.5 Q171,512 249,512 Q294,512 332.5,501.5 Q371,491 399.5,466.5 Q428,442 444.5,401.5 Q461,361 461,301 L461,0 L359,0 L346,64 Q320,32 282.5,12 Q245,-8 191,-8 Q159,-8 131,2 Q103,12 82.5,31 Q62,50 50,78.5 Q38,107 38,145 Q38,182 53.5,212.5 Q69,243 97.5,265 Q126,287 165.5,298.5 Q205,310 253,310 L337,310 L337,332 Q337,353 329.5,367 Q322,381 310,390 Q298,399 282,402.5 Q266,406 249,406 Q223,406 198.5,394.5 Q174,383 162,348 M168,147 Q168,129 181,113.5 Q194,98 220,98 Q241,98 262,105 Q283,112 299.5,125.5 Q316,139 326.5,158.5 Q337,178 337,202 L337,212 L254,212 Q214,212 191,196.5 Q168,181 168,147"/> 
            <glyph glyph-name="b" unicode="&#x62;" horiz-adv-x="556" d=" M556,252 Q556,194 541.5,146 Q527,98 498,64 Q469,30 426,11 Q383,-8 326,-8 Q303,-8 283,-2.5 Q263,3 247,12 Q231,21 220,31.5 Q209,42 204,52 L204,0 L80,0 L80,708 L204,708 L204,458 Q221,479 254.5,495.5 Q288,512 326,512 Q383,512 426,493 Q469,474 498,440 Q527,406 541.5,358 Q556,310 556,252 M426,252 Q426,327 392,366.5 Q358,406 309,406 Q260,406 226.5,366.5 Q193,327 193,252 Q193,177 226.5,137.5 Q260,98 309,98 Q358,98 392,137.5 Q426,177 426,252"/> 
            <glyph glyph-name="c" unicode="&#x63;" horiz-adv-x="518" d=" M518,136 Q489,64 431.5,28 Q374,-8 289,-8 Q227,-8 181,12.5 Q135,33 104.5,68.5 Q74,104 58.5,151.5 Q43,199 43,252 Q43,305 58.5,352.5 Q74,400 104.5,435.5 Q135,471 181,491.5 Q227,512 289,512 Q374,512 431.5,476 Q489,440 518,368 L407,323 Q387,363 359,384.5 Q331,406 289,406 Q230,406 201.5,362.5 Q173,319 173,252 Q173,185 201.5,141.5 Q230,98 289,98 Q331,98 359,119.5 Q387,141 407,181"/> 
            <glyph glyph-name="d" unicode="&#x64;" horiz-adv-x="519" d=" M43,252 Q43,310 57.5,358 Q72,406 101,440 Q130,474 173,493 Q216,512 273,512 Q311,512 344.5,495.5 Q378,479 395,458 L395,708 L519,708 L519,0 L395,0 L395,52 Q390,42 379,31.5 Q368,21 352,12 Q336,3 316,-2.5 Q296,-8 273,-8 Q216,-8 173,11 Q130,30 101,64 Q72,98 57.5,146 Q43,194 43,252 M173,252 Q173,177 207,137.5 Q241,98 290,98 Q339,98 372.5,137.5 Q406,177 406,252 Q406,327 372.5,366.5 Q339,406 290,406 Q241,406 207,366.5 Q173,327 173,252"/> 
            <glyph glyph-name="e" unicode="&#x65;" horiz-adv-x="520" d=" M520,212 L173,212 Q174,191 182,170.5 Q190,150 205,134 Q220,118 241.5,108 Q263,98 292,98 Q335,98 363,117.5 Q391,137 414,176 L514,139 Q485,72 430.5,32 Q376,-8 285,-8 Q220,-8 174,16 Q128,40 99,77.5 Q70,115 56.5,161 Q43,207 43,252 Q43,297 56.5,343 Q70,389 99,426.5 Q128,464 174,488 Q220,512 285,512 Q348,512 392.5,488.5 Q437,465 465.5,428.5 Q494,392 507,348 Q520,304 520,263 M285,406 Q261,406 242.5,397.5 Q224,389 210.5,375.5 Q197,362 188,345 Q179,328 176,310 L393,310 Q389,329 381,346 Q373,363 360,376.5 Q347,390 328.5,398 Q310,406 285,406"/> 
            <glyph glyph-name="f" unicode="&#x66;" horiz-adv-x="364" d=" M32,504 L96,504 L96,530 Q96,622 144,665 Q192,708 270,708 Q299,708 323,702.5 Q347,697 364,688 L337,588 Q321,595 307,598.5 Q293,602 277,602 Q251,602 235.5,587.5 Q220,573 220,539 L220,504 L326,504 L326,398 L220,398 L220,0 L96,0 L96,398 L32,398"/> 
            <glyph glyph-name="g" unicode="&#x67;" horiz-adv-x="503" d=" M81,342 Q81,381 95.5,412.5 Q110,444 135,466 Q160,488 194,500 Q228,512 266,512 Q315,512 359,490 L454,540 L503,458 L431,422 Q451,387 451,342 Q451,302 436.5,271 Q422,240 397,218.5 Q372,197 338,185.5 Q304,174 266,174 Q228,174 193,185 Q169,171 169,147 Q169,110 216,110 L319,110 Q399,110 447.5,72.5 Q496,35 496,-38 Q496,-85 476,-118 Q456,-151 423.5,-172 Q391,-193 350,-202.5 Q309,-212 267,-212 Q219,-212 177,-201.5 Q135,-191 104.5,-170 Q74,-149 56.5,-118 Q39,-87 39,-46 Q39,-15 49.5,10.5 Q60,36 80,54 Q68,68 61,88 Q54,108 54,132 Q54,168 71,194.5 Q88,221 116,238 Q99,258 90,284 Q81,310 81,342 M223,6 Q207,6 193,7 Q179,8 165,10 Q154,-7 154,-36 Q154,-72 186,-90 Q218,-108 267,-108 Q312,-108 342,-94 Q372,-80 372,-46 Q372,-14 349,-4 Q326,6 291,6 M197,342 Q197,311 216.5,292.5 Q236,274 266,274 Q296,274 315.5,292.5 Q335,311 335,342 Q335,374 315.5,393 Q296,412 266,412 Q236,412 216.5,393 Q197,374 197,342"/> 
            <glyph glyph-name="h" unicode="&#x68;" horiz-adv-x="521" d=" M204,708 L204,423 Q228,461 268.5,486.5 Q309,512 364,512 Q436,512 478.5,475 Q521,438 521,360 L521,0 L397,0 L397,316 Q397,406 322,406 Q301,406 279.5,395 Q258,384 241.5,360.5 Q225,337 214.5,300.5 Q204,264 204,213 L204,0 L80,0 L80,708"/> 
            <glyph glyph-name="i" unicode="&#x69;" horiz-adv-x="210" d=" M50,649 Q50,683 72.5,706 Q95,729 130,729 Q165,729 187.5,706 Q210,683 210,649 Q210,615 187.5,592 Q165,569 130,569 Q95,569 72.5,592 Q50,615 50,649 M192,504 L192,0 L68,0 L68,504"/> 
            <glyph glyph-name="j" unicode="&#x6A;" horiz-adv-x="210" d=" M192,504 L192,58 Q192,-2 179,-47.5 Q166,-93 139.5,-125 Q113,-157 73.5,-178.5 Q34,-200 -19,-212 L-49,-103 Q-22,-96 0,-85.5 Q22,-75 37,-58.5 Q52,-42 60,-17 Q68,8 68,43 L68,504 M50,649 Q50,683 72.5,706 Q95,729 130,729 Q165,729 187.5,706 Q210,683 210,649 Q210,615 187.5,592 Q165,569 130,569 Q95,569 72.5,592 Q50,615 50,649"/> 
            <glyph glyph-name="k" unicode="&#x6B;" horiz-adv-x="534" d=" M204,708 L204,306 L368,504 L521,504 L319,272 L534,0 L382,0 L204,238 L204,0 L80,0 L80,708"/> 
            <glyph glyph-name="l" unicode="&#x6C;" horiz-adv-x="202" d=" M202,708 L202,0 L78,0 L78,708"/> 
            <glyph glyph-name="m" unicode="&#x6D;" horiz-adv-x="794" d=" M375,0 L375,336 Q375,374 358,390 Q341,406 313,406 Q267,406 235.5,352 Q204,298 204,185 L204,0 L80,0 L80,504 L204,504 L204,423 Q232,465 266,488.5 Q300,512 349,512 Q396,512 434.5,487.5 Q473,463 490,408 Q517,457 557,484.5 Q597,512 644,512 Q715,512 754.5,471 Q794,430 794,357 L794,0 L670,0 L670,336 Q670,374 653,390 Q636,406 608,406 Q563,406 531,354.5 Q499,303 499,196 L499,0"/> 
            <glyph glyph-name="n" unicode="&#x6E;" horiz-adv-x="515" d=" M204,504 L204,423 Q232,463 271.5,487.5 Q311,512 360,512 Q428,512 471.5,474 Q515,436 515,360 L515,0 L391,0 L391,323 Q391,368 371,387 Q351,406 319,406 Q296,406 275.5,392.5 Q255,379 239,353 Q223,327 213.5,289 Q204,251 204,201 L204,0 L80,0 L80,504"/> 
            <glyph glyph-name="o" unicode="&#x6F;" horiz-adv-x="555" d=" M43,252 Q43,307 60,354.5 Q77,402 110,437 Q143,472 190.5,492 Q238,512 299,512 Q360,512 407.5,492 Q455,472 488,437 Q521,402 538,354.5 Q555,307 555,252 Q555,197 538,149.5 Q521,102 488,67 Q455,32 407.5,12 Q360,-8 299,-8 Q238,-8 190.5,12 Q143,32 110,67 Q77,102 60,149.5 Q43,197 43,252 M173,252 Q173,221 181.5,193 Q190,165 206,144 Q222,123 245.5,110.5 Q269,98 299,98 Q329,98 352.5,110.5 Q376,123 392,144 Q408,165 416.5,193 Q425,221 425,252 Q425,283 416.5,311 Q408,339 392,360 Q376,381 352.5,393.5 Q329,406 299,406 Q269,406 245.5,393.5 Q222,381 206,360 Q190,339 181.5,311 Q173,283 173,252"/> 
            <glyph glyph-name="p" unicode="&#x70;" horiz-adv-x="556" d=" M556,252 Q556,194 541.5,146 Q527,98 498,64 Q469,30 426,11 Q383,-8 326,-8 Q288,-8 254.5,8.5 Q221,25 204,46 L204,-204 L80,-204 L80,504 L204,504 L204,452 Q209,462 220,472.5 Q231,483 247,492 Q263,501 283,506.5 Q303,512 326,512 Q383,512 426,493 Q469,474 498,440 Q527,406 541.5,358 Q556,310 556,252 M426,252 Q426,327 392,366.5 Q358,406 309,406 Q260,406 226.5,366.5 Q193,327 193,252 Q193,177 226.5,137.5 Q260,98 309,98 Q358,98 392,137.5 Q426,177 426,252"/> 
            <glyph glyph-name="q" unicode="&#x71;" horiz-adv-x="519" d=" M43,252 Q43,310 57.5,358 Q72,406 101,440 Q130,474 173,493 Q216,512 273,512 Q296,512 316,506.5 Q336,501 352,492 Q368,483 379,472.5 Q390,462 395,452 L395,504 L519,504 L519,-204 L395,-204 L395,46 Q378,25 344.5,8.5 Q311,-8 273,-8 Q216,-8 173,11 Q130,30 101,64 Q72,98 57.5,146 Q43,194 43,252 M173,252 Q173,177 207,137.5 Q241,98 290,98 Q339,98 372.5,137.5 Q406,177 406,252 Q406,327 372.5,366.5 Q339,406 290,406 Q241,406 207,366.5 Q173,327 173,252"/> 
            <glyph glyph-name="r" unicode="&#x72;" horiz-adv-x="414" d=" M80,0 L80,504 L204,504 L204,422 Q231,467 270.5,489.5 Q310,512 353,512 Q370,512 384.5,509.5 Q399,507 414,502 L391,387 Q368,401 339,401 Q312,401 287.5,389 Q263,377 244.5,351 Q226,325 215,282.5 Q204,240 204,179 L204,0"/> 
            <glyph glyph-name="s" unicode="&#x73;" horiz-adv-x="415" d=" M231,512 Q282,512 324,489.5 Q366,467 389,430 L315,362 Q298,385 275,395.5 Q252,406 231,406 Q213,406 199,395.5 Q185,385 185,364 Q185,347 197.5,335 Q210,323 233,315 Q259,306 290.5,295.5 Q322,285 350,268.5 Q378,252 396.5,226 Q415,200 415,160 Q415,126 402.5,95.5 Q390,65 366.5,42 Q343,19 310,5.5 Q277,-8 236,-8 Q197,-8 164,4.5 Q131,17 106,36.5 Q81,56 63,80.5 Q45,105 36,128 L135,181 Q149,144 174,121 Q199,98 236,98 Q265,98 281.5,111 Q298,124 298,152 Q298,168 287,178 Q276,188 258,196.5 Q240,205 217.5,212 Q195,219 172,229 Q151,238 132.5,249 Q114,260 100,276 Q86,292 78,314 Q70,336 70,365 Q70,394 81.5,420.5 Q93,447 114,467.5 Q135,488 164.5,500 Q194,512 231,512"/> 
            <glyph glyph-name="t" unicode="&#x74;" horiz-adv-x="363" d=" M363,10 Q342,0 321.5,-4 Q301,-8 281,-8 Q195,-8 145.5,38 Q96,84 96,178 L96,398 L18,398 L18,504 L96,504 L96,630 L220,708 L220,504 L353,504 L353,398 L220,398 L220,180 Q220,133 237,115.5 Q254,98 286,98 Q299,98 310,100.5 Q321,103 334,110"/> 
            <glyph glyph-name="u" unicode="&#x75;" horiz-adv-x="507" d=" M383,0 L383,81 Q355,41 315.5,16.5 Q276,-8 227,-8 Q159,-8 115.5,30 Q72,68 72,144 L72,504 L196,504 L196,181 Q196,136 216,117 Q236,98 268,98 Q290,98 311,111.5 Q332,125 348,151 Q364,177 373.5,215 Q383,253 383,303 L383,504 L507,504 L507,0"/> 
            <glyph glyph-name="v" unicode="&#x76;" horiz-adv-x="459" d=" M130,504 L232,153 L334,504 L459,504 L288,0 L176,0 L5,504"/> 
            <glyph glyph-name="w" unicode="&#x77;" horiz-adv-x="741" d=" M741,504 L580,0 L470,0 L383,326 L296,0 L186,0 L25,504 L150,504 L240,158 L325,504 L441,504 L526,158 L616,504"/> 
            <glyph glyph-name="x" unicode="&#x78;" horiz-adv-x="474" d=" M453,504 L307,269 L474,0 L344,0 L241,164 L138,0 L8,0 L175,269 L29,504 L159,504 L241,373 L323,504"/> 
            <glyph glyph-name="y" unicode="&#x79;" horiz-adv-x="479" d=" M128,504 L245,188 L355,504 L479,504 L219,-204 L99,-204 L186,32 L3,504"/> 
            <glyph glyph-name="z" unicode="&#x7A;" horiz-adv-x="427" d=" M57,504 L413,504 L413,456 L197,106 L427,106 L427,0 L41,0 L41,48 L259,398 L57,398"/> 
            <glyph glyph-name="{" unicode="&#x7B;" horiz-adv-x="324" d=" M136,216 Q136,263 118.5,279.5 Q101,296 56,296 L56,404 Q101,404 118.5,420.5 Q136,437 136,484 L136,650 Q136,695 163.5,722.5 Q191,750 236,750 L324,750 L324,642 L297,642 Q273,642 264.5,632.5 Q256,623 256,597 L256,448 Q256,418 250,400 Q244,382 234,371.5 Q224,361 210.5,356.5 Q197,352 182,350 Q197,348 210.5,343.5 Q224,339 234,328.5 Q244,318 250,300 Q256,282 256,252 L256,103 Q256,77 264.5,67.5 Q273,58 297,58 L324,58 L324,-50 L236,-50 Q191,-50 163.5,-22.5 Q136,5 136,50"/> 
            <glyph glyph-name="|" unicode="&#x7C;" horiz-adv-x="212" d=" M212,750 L212,-50 L90,-50 L90,750"/> 
            <glyph glyph-name="}" unicode="&#x7D;" horiz-adv-x="290" d=" M210,50 Q210,5 182.5,-22.5 Q155,-50 110,-50 L22,-50 L22,58 L49,58 Q73,58 81.5,67.5 Q90,77 90,103 L90,252 Q90,282 96,300 Q102,318 112,328.5 Q122,339 135.5,343.5 Q149,348 164,350 Q149,352 135.5,356.5 Q122,361 112,371.5 Q102,382 96,400 Q90,418 90,448 L90,597 Q90,623 81.5,632.5 Q73,642 49,642 L22,642 L22,750 L110,750 Q155,750 182.5,722.5 Q210,695 210,650 L210,484 Q210,437 227.5,420.5 Q245,404 290,404 L290,296 Q245,296 227.5,279.5 Q210,263 210,216"/> 
            <glyph glyph-name="~" unicode="&#x7E;" horiz-adv-x="580" d=" M74,318 Q83,339 98,359 Q113,379 133,394.5 Q153,410 176,419.5 Q199,429 225,429 Q257,429 282.5,420 Q308,411 331,399.5 Q354,388 376.5,379 Q399,370 425,370 Q454,370 476.5,385 Q499,400 516,421 L580,352 Q571,331 556,311 Q541,291 521,275.5 Q501,260 477.5,250.5 Q454,241 429,241 Q397,241 371.5,250 Q346,259 323,270.5 Q300,282 277.5,291 Q255,300 229,300 Q200,300 177.5,285 Q155,270 138,249"/> 
            <glyph glyph-name="¡" unicode="&#xA1;" horiz-adv-x="260" d=" M95,-204 L123,254 L231,254 L259,-204 M94,420 Q94,455 118,478.5 Q142,502 177,502 Q212,502 236,478.5 Q260,455 260,420 Q260,385 236,360.5 Q212,336 177,336 Q142,336 118,360.5 Q94,385 94,420"/> 
            <glyph glyph-name="¢" unicode="&#xA2;" horiz-adv-x="529" d=" M529,234 Q482,119 361,96 L361,-50 L239,-50 L239,96 Q192,106 157.5,129.5 Q123,153 100,186.5 Q77,220 65.5,262 Q54,304 54,350 Q54,396 65.5,438 Q77,480 100,513.5 Q123,547 157.5,570.5 Q192,594 239,604 L239,750 L361,750 L361,604 Q482,581 529,466 L418,421 Q398,461 370,482.5 Q342,504 300,504 Q241,504 212.5,460.5 Q184,417 184,350 Q184,283 212.5,239.5 Q241,196 300,196 Q342,196 370,217.5 Q398,239 418,279"/> 
            <glyph glyph-name="£" unicode="&#xA3;" horiz-adv-x="539" d=" M53,422 L101,422 Q95,439 90,458.5 Q85,478 85,500 Q85,544 100,582 Q115,620 142.5,648 Q170,676 209.5,692 Q249,708 298,708 Q378,708 430,670.5 Q482,633 505,570 L402,521 Q369,592 298,592 Q281,592 265,586.5 Q249,581 236.5,569 Q224,557 216.5,538.5 Q209,520 209,493 Q209,470 211,453 Q213,436 217,422 L390,422 L390,306 L252,306 Q255,288 255,268 Q255,237 248.5,213 Q242,189 230.5,169.5 Q219,150 204.5,134.5 Q190,119 174,105 Q195,118 220.5,127.5 Q246,137 273,137 Q291,137 303.5,132.5 Q316,128 327.5,122 Q339,116 351,111.5 Q363,107 381,107 Q400,107 416.5,117.5 Q433,128 453,163 L539,109 Q505,49 466,20.5 Q427,-8 374,-8 Q347,-8 328.5,-2 Q310,4 294,10.5 Q278,17 261.5,23 Q245,29 222,29 Q189,29 162.5,19 Q136,9 106,-8 L37,68 Q58,87 77.5,106.5 Q97,126 112,147.5 Q127,169 136,193 Q145,217 145,245 Q145,262 142.5,277 Q140,292 136,306 L53,306"/> 
            <glyph glyph-name="¤" unicode="&#xA4;" horiz-adv-x="550" d=" M109,208 Q84,253 84,307 Q84,361 109,406 L20,475 L117,572 L186,483 Q230,509 285,509 Q340,509 384,483 L453,572 L550,475 L461,406 Q486,361 486,307 Q486,253 461,208 L550,139 L453,42 L384,131 Q340,105 285,105 Q230,105 186,131 L117,42 L20,139 M204,307 Q204,267 225.5,242.5 Q247,218 285,218 Q323,218 344.5,242.5 Q366,267 366,307 Q366,347 344.5,371.5 Q323,396 285,396 Q247,396 225.5,371.5 Q204,347 204,307"/> 
            <glyph glyph-name="¥" unicode="&#xA5;" horiz-adv-x="530" d=" M148,700 L269,428 L390,700 L530,700 L386,406 L477,406 L477,298 L334,298 L334,226 L477,226 L477,118 L334,118 L334,0 L204,0 L204,118 L61,118 L61,226 L204,226 L204,298 L61,298 L61,406 L152,406 L8,700"/> 
            <glyph glyph-name="¦" unicode="&#xA6;" horiz-adv-x="212" d=" M212,299 L212,-50 L90,-50 L90,299 M90,401 L90,750 L212,750 L212,401"/> 
            <glyph glyph-name="§" unicode="&#xA7;" horiz-adv-x="490" d=" M490,222 Q490,174 474.5,140.5 Q459,107 431,83 Q446,57 451,31.5 Q456,6 456,-17 Q456,-62 441.5,-98 Q427,-134 402,-159.5 Q377,-185 344,-198.5 Q311,-212 275,-212 Q197,-212 146,-175 Q95,-138 75,-61 L185,-25 Q199,-65 222,-80.5 Q245,-96 275,-96 Q302,-96 319,-78 Q336,-60 336,-24 Q336,1 323.5,19.5 Q311,38 288.5,53.5 Q266,69 234.5,84 Q203,99 165,119 Q120,142 90,178.5 Q60,215 60,274 Q60,322 75.5,355.5 Q91,389 119,413 Q104,439 99,464.5 Q94,490 94,513 Q94,558 108.5,594 Q123,630 148,655.5 Q173,681 206,694.5 Q239,708 275,708 Q353,708 404,671 Q455,634 475,557 L365,521 Q351,561 328,576.5 Q305,592 275,592 Q248,592 231,574 Q214,556 214,520 Q214,494 226.5,476 Q239,458 261.5,442.5 Q284,427 315.5,411.5 Q347,396 385,377 Q430,354 460,317.5 Q490,281 490,222 M382,213 Q382,235 365,252.5 Q348,270 321.5,284.5 Q295,299 262.5,313 Q230,327 198,344 Q184,333 176,318 Q168,303 168,283 Q168,260 185,243 Q202,226 228.5,211.5 Q255,197 287.5,182.5 Q320,168 352,152 Q366,163 374,178 Q382,193 382,213"/> 
            <glyph glyph-name="¨" unicode="&#xA8;" horiz-adv-x="365" d=" M16,651 Q16,682 35.5,702 Q55,722 87,722 Q119,722 138.5,702 Q158,682 158,651 Q158,620 138.5,600 Q119,580 87,580 Q55,580 35.5,600 Q16,620 16,651 M223,651 Q223,682 242.5,702 Q262,722 294,722 Q326,722 345.5,702 Q365,682 365,651 Q365,620 345.5,600 Q326,580 294,580 Q262,580 242.5,600 Q223,620 223,651"/> 
            <glyph glyph-name="©" unicode="&#xA9;" horiz-adv-x="830" d=" M60,350 Q60,433 89.5,504.5 Q119,576 170.5,628.5 Q222,681 292.5,710.5 Q363,740 445,740 Q527,740 597,710.5 Q667,681 719,628.5 Q771,576 800.5,504.5 Q830,433 830,350 Q830,267 800.5,195.5 Q771,124 719,71.5 Q667,19 597,-10.5 Q527,-40 445,-40 Q363,-40 292.5,-10.5 Q222,19 170.5,71.5 Q119,124 89.5,195.5 Q60,267 60,350 M170,350 Q170,288 190.5,236 Q211,184 247.5,146 Q284,108 334.5,87 Q385,66 445,66 Q505,66 555.5,87 Q606,108 642.5,146 Q679,184 699.5,236 Q720,288 720,350 Q720,412 699.5,464 Q679,516 642.5,554 Q606,592 555.5,613 Q505,634 445,634 Q385,634 334.5,613 Q284,592 247.5,554 Q211,516 190.5,464 Q170,412 170,350 M630,275 Q625,240 608,213.5 Q591,187 566.5,169.5 Q542,152 510.5,143 Q479,134 445,134 Q406,134 369.5,147.5 Q333,161 305,188 Q277,215 260.5,255.5 Q244,296 244,350 Q244,404 260.5,444.5 Q277,485 305,512 Q333,539 369.5,552.5 Q406,566 445,566 Q479,566 510.5,557 Q542,548 566.5,530.5 Q591,513 608,486.5 Q625,460 630,425 L533,406 Q520,445 496,458 Q472,471 445,471 Q404,471 379,437.5 Q354,404 354,350 Q354,296 379,262.5 Q404,229 445,229 Q472,229 496,242 Q520,255 533,294"/> 
            <glyph glyph-name="ª" unicode="&#xAA;" horiz-adv-x="390" d=" M73,594 Q82,643 122.5,673.5 Q163,704 224,704 Q259,704 289.5,696 Q320,688 342.5,668.5 Q365,649 377.5,617.5 Q390,586 390,538 L390,300 L309,300 L300,352 Q279,327 250,311.5 Q221,296 178,296 Q154,296 132,304 Q110,312 93.5,327 Q77,342 67.5,364.5 Q58,387 58,416 Q58,446 70.5,470 Q83,494 105,511 Q127,528 158,537 Q189,546 227,546 L293,546 L293,563 Q293,596 272,608.5 Q251,621 224,621 Q203,621 184,612 Q165,603 155,575 M160,416 Q160,402 169.5,390.5 Q179,379 201,379 Q218,379 234.5,384.5 Q251,390 264,400.5 Q277,411 285,426.5 Q293,442 293,461 L293,472 L227,472 Q196,472 178,457 Q160,442 160,416"/> 
            <glyph glyph-name="«" unicode="&#xAB;" horiz-adv-x="653" d=" M44,351 L353,569 L353,441 L168,310 L353,179 L353,51 L44,269 M344,351 L653,569 L653,441 L468,310 L653,179 L653,51 L344,269"/> 
            <glyph glyph-name="¬" unicode="&#xAC;" horiz-adv-x="526" d=" M60,407 L526,407 L526,142 L402,142 L402,295 L60,295"/> 
            <glyph glyph-name="®" unicode="&#xAE;" horiz-adv-x="830" d=" M60,350 Q60,433 89.5,504.5 Q119,576 170.5,628.5 Q222,681 292.5,710.5 Q363,740 445,740 Q527,740 597,710.5 Q667,681 719,628.5 Q771,576 800.5,504.5 Q830,433 830,350 Q830,267 800.5,195.5 Q771,124 719,71.5 Q667,19 597,-10.5 Q527,-40 445,-40 Q363,-40 292.5,-10.5 Q222,19 170.5,71.5 Q119,124 89.5,195.5 Q60,267 60,350 M170,350 Q170,288 190.5,236 Q211,184 247.5,146 Q284,108 334.5,87 Q385,66 445,66 Q505,66 555.5,87 Q606,108 642.5,146 Q679,184 699.5,236 Q720,288 720,350 Q720,412 699.5,464 Q679,516 642.5,554 Q606,592 555.5,613 Q505,634 445,634 Q385,634 334.5,613 Q284,592 247.5,554 Q211,516 190.5,464 Q170,412 170,350 M406,319 L394,319 L394,137 L289,137 L289,563 L458,563 Q530,563 564,531 Q598,499 598,441 Q598,390 574,361 Q550,332 511,324 L628,137 L515,137 M394,480 L394,402 L448,402 Q476,402 486,413 Q496,424 496,441 Q496,459 486,469.5 Q476,480 448,480"/> 
            <glyph glyph-name="¯" unicode="&#xAF;" horiz-adv-x="278" d=" M9,728 L278,728 L278,618 L9,618"/> 
            <glyph glyph-name="°" unicode="&#xB0;" horiz-adv-x="304" d=" M60,593 Q60,619 69,641 Q78,663 94.5,679.5 Q111,696 133.5,705 Q156,714 182,714 Q208,714 230.5,705 Q253,696 269.5,679.5 Q286,663 295,641 Q304,619 304,593 Q304,567 295,545 Q286,523 269.5,506.5 Q253,490 230.5,481 Q208,472 182,472 Q156,472 133.5,481 Q111,490 94.5,506.5 Q78,523 69,545 Q60,567 60,593 M143,593 Q143,575 153.5,564 Q164,553 182,553 Q200,553 210.5,564 Q221,575 221,593 Q221,611 210.5,622 Q200,633 182,633 Q164,633 153.5,622 Q143,611 143,593"/> 
            <glyph glyph-name="±" unicode="&#xB1;" horiz-adv-x="534" d=" M350,637 L350,453 L534,453 L534,345 L350,345 L350,161 L242,161 L242,345 L58,345 L58,453 L242,453 L242,637 M65594,65644 L66070,65644 L66070,65536 L65594,65536"/> 
            <glyph glyph-name="²" unicode="&#xB2;" horiz-adv-x="324" d=" M53,335 L198,512 Q214,531 219.5,547.5 Q225,564 225,580 Q225,600 214.5,610.5 Q204,621 187,621 Q170,621 156,610.5 Q142,600 136,568 L56,591 Q62,642 98.5,673 Q135,704 187,704 Q245,704 281.5,671.5 Q318,639 318,582 Q318,551 306.5,527 Q295,503 278,483 L196,383 L324,383 L324,300 L53,300"/> 
            <glyph glyph-name="³" unicode="&#xB3;" horiz-adv-x="333" d=" M133,432 Q138,405 154.5,392 Q171,379 191,379 Q240,379 240,438 Q240,466 226,478.5 Q212,491 192,491 Q180,491 172.5,488.5 Q165,486 155,481 L115,531 L181,617 L71,617 L71,700 L308,700 L308,665 L219,551 Q244,551 265,541.5 Q286,532 301,516.5 Q316,501 324.5,480 Q333,459 333,435 Q333,373 299,334.5 Q265,296 193,296 Q162,296 137,305.5 Q112,315 94,332 Q76,349 65,372 Q54,395 53,422"/> 
            <glyph glyph-name="´" unicode="&#xB4;" horiz-adv-x="247" d=" M79,708 L247,708 L110,560 L15,560"/> 
            <glyph glyph-name="µ" unicode="&#xB5;" horiz-adv-x="507" d=" M383,0 L383,81 Q355,41 315.5,16.5 Q276,-8 227,-8 Q211,-8 196,-5 L196,-204 L72,-204 L72,504 L196,504 L196,181 Q196,136 216,117 Q236,98 268,98 Q290,98 311,111.5 Q332,125 348,151 Q364,177 373.5,215 Q383,253 383,303 L383,504 L507,504 L507,0"/> 
            <glyph glyph-name="¶" unicode="&#xB6;" horiz-adv-x="684" d=" M54,473 Q54,520 72,561.5 Q90,603 120.5,633.5 Q151,664 192.5,682 Q234,700 281,700 L684,700 L684,592 L622,592 L622,-204 L502,-204 L502,592 L401,592 L401,-204 L281,-204 L281,246 Q234,246 192.5,264 Q151,282 120.5,312.5 Q90,343 72,384.5 Q54,426 54,473"/> 
            <glyph glyph-name="·" unicode="&#xB7;" horiz-adv-x="248" d=" M80,368 Q80,404 104,428 Q128,452 164,452 Q200,452 224,428 Q248,404 248,368 Q248,332 224,308 Q200,284 164,284 Q128,284 104,308 Q80,332 80,368"/> 
            <glyph glyph-name="¸" unicode="&#xB8;" horiz-adv-x="236" d=" M153,-266 L5,-200 L146,-60 L236,-60"/> 
            <glyph glyph-name="¹" unicode="&#xB9;" horiz-adv-x="226" d=" M226,700 L226,300 L137,300 L137,578 L52,540 L52,635 L189,700"/> 
            <glyph glyph-name="º" unicode="&#xBA;" horiz-adv-x="462" d=" M60,500 Q60,543 73.5,580.5 Q87,618 113,645.5 Q139,673 176,688.5 Q213,704 261,704 Q309,704 346,688.5 Q383,673 409,645.5 Q435,618 448.5,580.5 Q462,543 462,500 Q462,457 448.5,419.5 Q435,382 409,354.5 Q383,327 346,311.5 Q309,296 261,296 Q213,296 176,311.5 Q139,327 113,354.5 Q87,382 73.5,419.5 Q60,457 60,500 M162,500 Q162,476 168.5,454 Q175,432 188,415.5 Q201,399 219,389 Q237,379 261,379 Q285,379 303,389 Q321,399 334,415.5 Q347,432 353.5,454 Q360,476 360,500 Q360,524 353.5,546 Q347,568 334,584.5 Q321,601 303,611 Q285,621 261,621 Q237,621 219,611 Q201,601 188,584.5 Q175,568 168.5,546 Q162,524 162,500"/> 
            <glyph glyph-name="»" unicode="&#xBB;" horiz-adv-x="659" d=" M659,269 L350,51 L350,179 L535,310 L350,441 L350,569 L659,351 M359,269 L50,51 L50,179 L235,310 L50,441 L50,569 L359,351"/> 
            <glyph glyph-name="¼" unicode="&#xBC;" horiz-adv-x="783" d=" M741,681 L203,-38 L131,20 L669,738 M244,700 L244,300 L155,300 L155,578 L70,540 L70,635 L207,700 M651,65601 L484,65601 L484,65646 L645,65936 L740,65936 L740,65684 L783,65684 L783,65601 L740,65601 L740,65536 L651,65536 M651,65684 L651,65806 L588,65684"/> 
            <glyph glyph-name="½" unicode="&#xBD;" horiz-adv-x="838" d=" M741,681 L203,-38 L131,20 L669,738 M244,700 L244,300 L155,300 L155,578 L70,540 L70,635 L207,700 M567,65571 L712,65748 Q728,65767 733.5,65783.5 Q739,65800 739,65816 Q739,65836 728.5,65846.5 Q718,65857 701,65857 Q684,65857 670,65846.5 Q656,65836 650,65804 L570,65827 Q576,65878 612.5,65909 Q649,65940 701,65940 Q759,65940 795.5,65907.5 Q832,65875 832,65818 Q832,65787 820.5,65763 Q809,65739 792,65719 L710,65619 L838,65619 L838,65536 L567,65536"/> 
            <glyph glyph-name="¾" unicode="&#xBE;" horiz-adv-x="786" d=" M763,681 L225,-38 L153,20 L691,738 M133,432 Q138,405 154.5,392 Q171,379 191,379 Q240,379 240,438 Q240,466 226,478.5 Q212,491 192,491 Q180,491 172.5,488.5 Q165,486 155,481 L115,531 L181,617 L71,617 L71,700 L308,700 L308,665 L219,551 Q244,551 265,541.5 Q286,532 301,516.5 Q316,501 324.5,480 Q333,459 333,435 Q333,373 299,334.5 Q265,296 193,296 Q162,296 137,305.5 Q112,315 94,332 Q76,349 65,372 Q54,395 53,422 M654,65601 L487,65601 L487,65646 L648,65936 L743,65936 L743,65684 L786,65684 L786,65601 L743,65601 L743,65536 L654,65536 M654,65684 L654,65806 L591,65684"/> 
            <glyph glyph-name="¿" unicode="&#xBF;" horiz-adv-x="424" d=" M90,180 Q107,228 144,255.5 Q181,283 235,283 Q295,283 334,248 Q373,213 373,155 Q373,104 343,73.5 Q313,43 265,25 Q236,14 216.5,4 Q197,-6 185.5,-15.5 Q174,-25 169.5,-35.5 Q165,-46 165,-58 Q165,-84 184,-96 Q203,-108 230,-108 Q295,-108 315,-41 L424,-59 Q418,-91 403,-118.5 Q388,-146 364,-167 Q340,-188 307,-200 Q274,-212 233,-212 Q149,-212 98.5,-169 Q48,-126 48,-54 Q48,-24 57.5,-2 Q67,20 84.5,36.5 Q102,53 127.5,66 Q153,79 186,92 Q235,111 253,124.5 Q271,138 271,158 Q271,175 260.5,184 Q250,193 235,193 Q214,193 200,180.5 Q186,168 178,147 M318,420 Q318,385 294,360.5 Q270,336 235,336 Q200,336 176,360.5 Q152,385 152,420 Q152,455 176,478.5 Q200,502 235,502 Q270,502 294,478.5 Q318,455 318,420"/> 
            <glyph glyph-name="À" unicode="&#xC0;" horiz-adv-x="609" d=" M418,165 L196,165 L145,0 L5,0 L242,700 L372,700 L609,0 L469,0 M233,285 L381,285 L307,528 M379,756 L284,756 L147,904 L315,904"/> 
            <glyph glyph-name="Á" unicode="&#xC1;" horiz-adv-x="609" d=" M418,165 L196,165 L145,0 L5,0 L242,700 L372,700 L609,0 L469,0 M233,285 L381,285 L307,528 M293,904 L461,904 L324,756 L229,756"/> 
            <glyph glyph-name="Â" unicode="&#xC2;" horiz-adv-x="609" d=" M418,165 L196,165 L145,0 L5,0 L242,700 L372,700 L609,0 L469,0 M233,285 L381,285 L307,528 M290,948 L324,948 L495,762 L375,762 L307,836 L239,762 L119,762"/> 
            <glyph glyph-name="Ã" unicode="&#xC3;" horiz-adv-x="609" d=" M418,165 L196,165 L145,0 L5,0 L242,700 L372,700 L609,0 L469,0 M233,285 L381,285 L307,528 M115,820 Q132,858 166,882.5 Q200,907 238,907 Q263,907 280,900.5 Q297,894 311,886.5 Q325,879 339,872.5 Q353,866 371,866 Q388,866 404.5,877.5 Q421,889 435,909 L500,854 Q483,816 449,791.5 Q415,767 377,767 Q352,767 335,773.5 Q318,780 303.5,787.5 Q289,795 275.5,801.5 Q262,808 244,808 Q227,808 210.5,796.5 Q194,785 180,765"/> 
            <glyph glyph-name="Ä" unicode="&#xC4;" horiz-adv-x="609" d=" M418,165 L196,165 L145,0 L5,0 L242,700 L372,700 L609,0 L469,0 M233,285 L381,285 L307,528 M133,847 Q133,878 152.5,898 Q172,918 204,918 Q236,918 255.5,898 Q275,878 275,847 Q275,816 255.5,796 Q236,776 204,776 Q172,776 152.5,796 Q133,816 133,847 M340,847 Q340,878 359.5,898 Q379,918 411,918 Q443,918 462.5,898 Q482,878 482,847 Q482,816 462.5,796 Q443,776 411,776 Q379,776 359.5,796 Q340,816 340,847"/> 
            <glyph glyph-name="Å" unicode="&#xC5;" horiz-adv-x="609" d=" M418,165 L196,165 L145,0 L5,0 L242,700 L372,700 L609,0 L469,0 M233,285 L381,285 L307,528 M204,851 Q204,895 233,924 Q262,953 307,953 Q352,953 381,924 Q410,895 410,851 Q410,807 381,778 Q352,749 307,749 Q262,749 233,778 Q204,807 204,851 M277,851 Q277,837 285,828 Q293,819 307,819 Q321,819 329,828 Q337,837 337,851 Q337,865 329,874 Q321,883 307,883 Q293,883 285,874 Q277,865 277,851"/> 
            <glyph glyph-name="Æ" unicode="&#xC6;" horiz-adv-x="817" d=" M807,700 L807,580 L504,580 L504,433 L747,433 L747,313 L504,313 L504,120 L817,120 L817,0 L374,0 L374,165 L214,165 L148,0 L8,0 L314,700 M263,285 L374,285 L374,528 L361,528"/> 
            <glyph glyph-name="Ç" unicode="&#xC7;" horiz-adv-x="669" d=" M552,466 Q532,519 492,553.5 Q452,588 379,588 Q338,588 302,573.5 Q266,559 239,529.5 Q212,500 196,455.5 Q180,411 180,350 Q180,289 196,244.5 Q212,200 239,170.5 Q266,141 302,126.5 Q338,112 379,112 Q452,112 492,146.5 Q532,181 552,234 L669,204 Q644,103 569,47.5 Q494,-8 379,-8 Q313,-8 253.5,15 Q194,38 148,83 Q102,128 75,195 Q48,262 48,350 Q48,438 75,505 Q102,572 148,617 Q194,662 253.5,685 Q313,708 379,708 Q494,708 569,652.5 Q644,597 669,496 M380,-266 L232,-200 L373,-60 L463,-60"/> 
            <glyph glyph-name="È" unicode="&#xC8;" horiz-adv-x="533" d=" M523,700 L523,580 L220,580 L220,433 L463,433 L463,313 L220,313 L220,120 L533,120 L533,0 L90,0 L90,700 M385,756 L290,756 L153,904 L321,904"/> 
            <glyph glyph-name="É" unicode="&#xC9;" horiz-adv-x="533" d=" M523,700 L523,580 L220,580 L220,433 L463,433 L463,313 L220,313 L220,120 L533,120 L533,0 L90,0 L90,700 M282,904 L450,904 L313,756 L218,756"/> 
            <glyph glyph-name="Ê" unicode="&#xCA;" horiz-adv-x="533" d=" M523,700 L523,580 L220,580 L220,433 L463,433 L463,313 L220,313 L220,120 L533,120 L533,0 L90,0 L90,700 M295,948 L329,948 L500,762 L380,762 L312,836 L244,762 L124,762"/> 
            <glyph glyph-name="Ë" unicode="&#xCB;" horiz-adv-x="533" d=" M523,700 L523,580 L220,580 L220,433 L463,433 L463,313 L220,313 L220,120 L533,120 L533,0 L90,0 L90,700 M139,847 Q139,878 158.5,898 Q178,918 210,918 Q242,918 261.5,898 Q281,878 281,847 Q281,816 261.5,796 Q242,776 210,776 Q178,776 158.5,796 Q139,816 139,847 M346,847 Q346,878 365.5,898 Q385,918 417,918 Q449,918 468.5,898 Q488,878 488,847 Q488,816 468.5,796 Q449,776 417,776 Q385,776 365.5,796 Q346,816 346,847"/> 
            <glyph glyph-name="Ì" unicode="&#xCC;" horiz-adv-x="227" d=" M220,0 L90,0 L90,700 L220,700 M65763,756 L65668,756 L65531,904 L65699,904"/> 
            <glyph glyph-name="Í" unicode="&#xCD;" horiz-adv-x="315" d=" M220,0 L90,0 L90,700 L220,700 M147,904 L315,904 L178,756 L83,756"/> 
            <glyph glyph-name="Î" unicode="&#xCE;" horiz-adv-x="343" d=" M220,0 L90,0 L90,700 L220,700 M65674,948 L65708,948 L65879,762 L65759,762 L65691,836 L65623,762 L65503,762"/> 
            <glyph glyph-name="Ï" unicode="&#xCF;" horiz-adv-x="330" d=" M220,0 L90,0 L90,700 L220,700 M65517,847 Q65517,878 65536.5,898 Q65556,918 65588,918 Q65620,918 65639.5,898 Q65659,878 65659,847 Q65659,816 65639.5,796 Q65620,776 65588,776 Q65556,776 65536.5,796 Q65517,816 65517,847 M65724,847 Q65724,878 65743.5,898 Q65763,918 65795,918 Q65827,918 65846.5,898 Q65866,878 65866,847 Q65866,816 65846.5,796 Q65827,776 65795,776 Q65763,776 65743.5,796 Q65724,816 65724,847"/> 
            <glyph glyph-name="Ð" unicode="&#xD0;" horiz-adv-x="660" d=" M22,404 L115,404 L115,700 L334,700 Q396,700 454.5,680 Q513,660 559,617 Q605,574 632.5,508 Q660,442 660,350 Q660,258 632.5,192 Q605,126 559,83 Q513,40 454.5,20 Q396,0 334,0 L115,0 L115,296 L22,296 M245,580 L245,404 L338,404 L338,296 L245,296 L245,120 L293,120 Q335,120 377,130 Q419,140 452.5,165.5 Q486,191 507,235.5 Q528,280 528,350 Q528,420 507,464.5 Q486,509 452.5,534.5 Q419,560 377,570 Q335,580 293,580"/> 
            <glyph glyph-name="Ñ" unicode="&#xD1;" horiz-adv-x="614" d=" M614,700 L614,0 L477,0 L220,462 L220,0 L90,0 L90,700 L227,700 L484,238 L484,700 M154,820 Q171,858 205,882.5 Q239,907 277,907 Q302,907 319,900.5 Q336,894 350,886.5 Q364,879 378,872.5 Q392,866 410,866 Q427,866 443.5,877.5 Q460,889 474,909 L539,854 Q522,816 488,791.5 Q454,767 416,767 Q391,767 374,773.5 Q357,780 342.5,787.5 Q328,795 314.5,801.5 Q301,808 283,808 Q266,808 249.5,796.5 Q233,785 219,765"/> 
            <glyph glyph-name="Ò" unicode="&#xD2;" horiz-adv-x="708" d=" M378,708 Q444,708 504,686 Q564,664 609.5,620 Q655,576 681.5,508.5 Q708,441 708,350 Q708,259 681.5,191.5 Q655,124 609.5,80 Q564,36 504,14 Q444,-8 378,-8 Q312,-8 252,14 Q192,36 146.5,80 Q101,124 74.5,191.5 Q48,259 48,350 Q48,441 74.5,508.5 Q101,576 146.5,620 Q192,664 252,686 Q312,708 378,708 M378,588 Q339,588 303,574 Q267,560 239.5,531 Q212,502 196,457 Q180,412 180,350 Q180,288 196,243 Q212,198 239.5,169 Q267,140 303,126 Q339,112 378,112 Q417,112 453,126 Q489,140 516.5,169 Q544,198 560,243 Q576,288 576,350 Q576,412 560,457 Q544,502 516.5,531 Q489,560 453,574 Q417,588 378,588 M443,756 L348,756 L211,904 L379,904"/> 
            <glyph glyph-name="Ó" unicode="&#xD3;" horiz-adv-x="708" d=" M378,708 Q444,708 504,686 Q564,664 609.5,620 Q655,576 681.5,508.5 Q708,441 708,350 Q708,259 681.5,191.5 Q655,124 609.5,80 Q564,36 504,14 Q444,-8 378,-8 Q312,-8 252,14 Q192,36 146.5,80 Q101,124 74.5,191.5 Q48,259 48,350 Q48,441 74.5,508.5 Q101,576 146.5,620 Q192,664 252,686 Q312,708 378,708 M378,588 Q339,588 303,574 Q267,560 239.5,531 Q212,502 196,457 Q180,412 180,350 Q180,288 196,243 Q212,198 239.5,169 Q267,140 303,126 Q339,112 378,112 Q417,112 453,126 Q489,140 516.5,169 Q544,198 560,243 Q576,288 576,350 Q576,412 560,457 Q544,502 516.5,531 Q489,560 453,574 Q417,588 378,588 M361,904 L529,904 L392,756 L297,756"/> 
            <glyph glyph-name="Ô" unicode="&#xD4;" horiz-adv-x="708" d=" M378,708 Q444,708 504,686 Q564,664 609.5,620 Q655,576 681.5,508.5 Q708,441 708,350 Q708,259 681.5,191.5 Q655,124 609.5,80 Q564,36 504,14 Q444,-8 378,-8 Q312,-8 252,14 Q192,36 146.5,80 Q101,124 74.5,191.5 Q48,259 48,350 Q48,441 74.5,508.5 Q101,576 146.5,620 Q192,664 252,686 Q312,708 378,708 M378,588 Q339,588 303,574 Q267,560 239.5,531 Q212,502 196,457 Q180,412 180,350 Q180,288 196,243 Q212,198 239.5,169 Q267,140 303,126 Q339,112 378,112 Q417,112 453,126 Q489,140 516.5,169 Q544,198 560,243 Q576,288 576,350 Q576,412 560,457 Q544,502 516.5,531 Q489,560 453,574 Q417,588 378,588 M361,948 L395,948 L566,762 L446,762 L378,836 L310,762 L190,762"/> 
            <glyph glyph-name="Õ" unicode="&#xD5;" horiz-adv-x="708" d=" M378,708 Q444,708 504,686 Q564,664 609.5,620 Q655,576 681.5,508.5 Q708,441 708,350 Q708,259 681.5,191.5 Q655,124 609.5,80 Q564,36 504,14 Q444,-8 378,-8 Q312,-8 252,14 Q192,36 146.5,80 Q101,124 74.5,191.5 Q48,259 48,350 Q48,441 74.5,508.5 Q101,576 146.5,620 Q192,664 252,686 Q312,708 378,708 M378,588 Q339,588 303,574 Q267,560 239.5,531 Q212,502 196,457 Q180,412 180,350 Q180,288 196,243 Q212,198 239.5,169 Q267,140 303,126 Q339,112 378,112 Q417,112 453,126 Q489,140 516.5,169 Q544,198 560,243 Q576,288 576,350 Q576,412 560,457 Q544,502 516.5,531 Q489,560 453,574 Q417,588 378,588 M186,820 Q203,858 237,882.5 Q271,907 309,907 Q334,907 351,900.5 Q368,894 382,886.5 Q396,879 410,872.5 Q424,866 442,866 Q459,866 475.5,877.5 Q492,889 506,909 L571,854 Q554,816 520,791.5 Q486,767 448,767 Q423,767 406,773.5 Q389,780 374.5,787.5 Q360,795 346.5,801.5 Q333,808 315,808 Q298,808 281.5,796.5 Q265,785 251,765"/> 
            <glyph glyph-name="Ö" unicode="&#xD6;" horiz-adv-x="708" d=" M378,708 Q444,708 504,686 Q564,664 609.5,620 Q655,576 681.5,508.5 Q708,441 708,350 Q708,259 681.5,191.5 Q655,124 609.5,80 Q564,36 504,14 Q444,-8 378,-8 Q312,-8 252,14 Q192,36 146.5,80 Q101,124 74.5,191.5 Q48,259 48,350 Q48,441 74.5,508.5 Q101,576 146.5,620 Q192,664 252,686 Q312,708 378,708 M378,588 Q339,588 303,574 Q267,560 239.5,531 Q212,502 196,457 Q180,412 180,350 Q180,288 196,243 Q212,198 239.5,169 Q267,140 303,126 Q339,112 378,112 Q417,112 453,126 Q489,140 516.5,169 Q544,198 560,243 Q576,288 576,350 Q576,412 560,457 Q544,502 516.5,531 Q489,560 453,574 Q417,588 378,588 M204,847 Q204,878 223.5,898 Q243,918 275,918 Q307,918 326.5,898 Q346,878 346,847 Q346,816 326.5,796 Q307,776 275,776 Q243,776 223.5,796 Q204,816 204,847 M411,847 Q411,878 430.5,898 Q450,918 482,918 Q514,918 533.5,898 Q553,878 553,847 Q553,816 533.5,796 Q514,776 482,776 Q450,776 430.5,796 Q411,816 411,847"/> 
            <glyph glyph-name="×" unicode="&#xD7;" horiz-adv-x="530" d=" M453,82 L295,241 L137,82 L60,159 L219,317 L60,475 L137,552 L295,393 L453,552 L530,475 L371,317 L530,159"/> 
            <glyph glyph-name="Ø" unicode="&#xD8;" horiz-adv-x="708" d=" M700,678 L634,593 Q669,549 688.5,488.5 Q708,428 708,350 Q708,259 681.5,191.5 Q655,124 609.5,80 Q564,36 504,14 Q444,-8 378,-8 Q330,-8 285.5,3 Q241,14 203,37 L142,-41 L56,22 L122,107 Q87,151 67.5,211.5 Q48,272 48,350 Q48,441 74.5,508.5 Q101,576 146.5,620 Q192,664 252,686 Q312,708 378,708 Q426,708 470.5,697 Q515,686 553,663 L614,741 M576,350 Q576,391 569,424.5 Q562,458 549,484 L280,137 Q324,112 378,112 Q417,112 453,125.5 Q489,139 516.5,168 Q544,197 560,242 Q576,287 576,350 M378,588 Q339,588 303,574.5 Q267,561 239.5,532 Q212,503 196,458 Q180,413 180,350 Q180,309 187,275.5 Q194,242 207,216 L476,563 Q432,588 378,588"/> 
            <glyph glyph-name="Ù" unicode="&#xD9;" horiz-adv-x="589" d=" M589,266 Q589,196 569.5,144.5 Q550,93 515.5,59 Q481,25 433,8.5 Q385,-8 328,-8 Q271,-8 223,8.5 Q175,25 140.5,59 Q106,93 86.5,144.5 Q67,196 67,266 L67,700 L197,700 L197,264 Q197,112 328,112 Q459,112 459,264 L459,700 L589,700 M394,756 L299,756 L162,904 L330,904"/> 
            <glyph glyph-name="Ú" unicode="&#xDA;" horiz-adv-x="589" d=" M589,266 Q589,196 569.5,144.5 Q550,93 515.5,59 Q481,25 433,8.5 Q385,-8 328,-8 Q271,-8 223,8.5 Q175,25 140.5,59 Q106,93 86.5,144.5 Q67,196 67,266 L67,700 L197,700 L197,264 Q197,112 328,112 Q459,112 459,264 L459,700 L589,700 M325,904 L493,904 L356,756 L261,756"/> 
            <glyph glyph-name="Û" unicode="&#xDB;" horiz-adv-x="589" d=" M589,266 Q589,196 569.5,144.5 Q550,93 515.5,59 Q481,25 433,8.5 Q385,-8 328,-8 Q271,-8 223,8.5 Q175,25 140.5,59 Q106,93 86.5,144.5 Q67,196 67,266 L67,700 L197,700 L197,264 Q197,112 328,112 Q459,112 459,264 L459,700 L589,700 M311,948 L345,948 L516,762 L396,762 L328,836 L260,762 L140,762"/> 
            <glyph glyph-name="Ü" unicode="&#xDC;" horiz-adv-x="589" d=" M589,266 Q589,196 569.5,144.5 Q550,93 515.5,59 Q481,25 433,8.5 Q385,-8 328,-8 Q271,-8 223,8.5 Q175,25 140.5,59 Q106,93 86.5,144.5 Q67,196 67,266 L67,700 L197,700 L197,264 Q197,112 328,112 Q459,112 459,264 L459,700 L589,700 M154,847 Q154,878 173.5,898 Q193,918 225,918 Q257,918 276.5,898 Q296,878 296,847 Q296,816 276.5,796 Q257,776 225,776 Q193,776 173.5,796 Q154,816 154,847 M361,847 Q361,878 380.5,898 Q400,918 432,918 Q464,918 483.5,898 Q503,878 503,847 Q503,816 483.5,796 Q464,776 432,776 Q400,776 380.5,796 Q361,816 361,847"/> 
            <glyph glyph-name="Ý" unicode="&#xDD;" horiz-adv-x="534" d=" M140,700 L267,428 L394,700 L534,700 L332,298 L332,0 L202,0 L202,298 L0,700 M255,904 L423,904 L286,756 L191,756"/> 
            <glyph glyph-name="Þ" unicode="&#xDE;" horiz-adv-x="573" d=" M220,137 L220,0 L90,0 L90,700 L220,700 L220,563 L354,563 Q409,563 450.5,547 Q492,531 519,502.5 Q546,474 559.5,435 Q573,396 573,350 Q573,304 559.5,265 Q546,226 519,197.5 Q492,169 450.5,153 Q409,137 354,137 M349,257 Q392,257 416.5,279.5 Q441,302 441,350 Q441,398 416.5,420.5 Q392,443 349,443 L220,443 L220,257"/> 
            <glyph glyph-name="ß" unicode="&#xDF;" horiz-adv-x="531" d=" M32,438 L84,438 L84,500 Q84,551 99,590 Q114,629 140.5,655.5 Q167,682 204,695 Q241,708 285,708 Q379,708 427,659.5 Q475,611 475,531 Q475,480 451,446 Q427,412 395,401 Q422,393 446.5,378.5 Q471,364 490,341.5 Q509,319 520,288.5 Q531,258 531,219 Q531,100 474,46 Q417,-8 308,-8 Q292,-8 273,-5.5 Q254,-3 243,0 L243,108 Q258,105 273.5,102.5 Q289,100 306,100 Q365,100 388,130.5 Q411,161 411,212 Q411,274 379.5,300 Q348,326 291,326 L258,326 L258,438 L278,438 Q316,438 339,457.5 Q362,477 362,520 Q362,560 341,581 Q320,602 285,602 Q249,602 226.5,577.5 Q204,553 204,503 L204,0 L84,0 L84,326 L32,326"/> 
            <glyph glyph-name="à" unicode="&#xE0;" horiz-adv-x="461" d=" M57,372 Q69,435 120,473.5 Q171,512 249,512 Q294,512 332.5,501.5 Q371,491 399.5,466.5 Q428,442 444.5,401.5 Q461,361 461,301 L461,0 L359,0 L346,64 Q320,32 282.5,12 Q245,-8 191,-8 Q159,-8 131,2 Q103,12 82.5,31 Q62,50 50,78.5 Q38,107 38,145 Q38,182 53.5,212.5 Q69,243 97.5,265 Q126,287 165.5,298.5 Q205,310 253,310 L337,310 L337,332 Q337,353 329.5,367 Q322,381 310,390 Q298,399 282,402.5 Q266,406 249,406 Q223,406 198.5,394.5 Q174,383 162,348 M168,147 Q168,129 181,113.5 Q194,98 220,98 Q241,98 262,105 Q283,112 299.5,125.5 Q316,139 326.5,158.5 Q337,178 337,202 L337,212 L254,212 Q214,212 191,196.5 Q168,181 168,147 M334,560 L239,560 L102,708 L270,708"/> 
            <glyph glyph-name="á" unicode="&#xE1;" horiz-adv-x="461" d=" M57,372 Q69,435 120,473.5 Q171,512 249,512 Q294,512 332.5,501.5 Q371,491 399.5,466.5 Q428,442 444.5,401.5 Q461,361 461,301 L461,0 L359,0 L346,64 Q320,32 282.5,12 Q245,-8 191,-8 Q159,-8 131,2 Q103,12 82.5,31 Q62,50 50,78.5 Q38,107 38,145 Q38,182 53.5,212.5 Q69,243 97.5,265 Q126,287 165.5,298.5 Q205,310 253,310 L337,310 L337,332 Q337,353 329.5,367 Q322,381 310,390 Q298,399 282,402.5 Q266,406 249,406 Q223,406 198.5,394.5 Q174,383 162,348 M168,147 Q168,129 181,113.5 Q194,98 220,98 Q241,98 262,105 Q283,112 299.5,125.5 Q316,139 326.5,158.5 Q337,178 337,202 L337,212 L254,212 Q214,212 191,196.5 Q168,181 168,147 M236,708 L404,708 L267,560 L172,560"/> 
            <glyph glyph-name="â" unicode="&#xE2;" horiz-adv-x="461" d=" M57,372 Q69,435 120,473.5 Q171,512 249,512 Q294,512 332.5,501.5 Q371,491 399.5,466.5 Q428,442 444.5,401.5 Q461,361 461,301 L461,0 L359,0 L346,64 Q320,32 282.5,12 Q245,-8 191,-8 Q159,-8 131,2 Q103,12 82.5,31 Q62,50 50,78.5 Q38,107 38,145 Q38,182 53.5,212.5 Q69,243 97.5,265 Q126,287 165.5,298.5 Q205,310 253,310 L337,310 L337,332 Q337,353 329.5,367 Q322,381 310,390 Q298,399 282,402.5 Q266,406 249,406 Q223,406 198.5,394.5 Q174,383 162,348 M168,147 Q168,129 181,113.5 Q194,98 220,98 Q241,98 262,105 Q283,112 299.5,125.5 Q316,139 326.5,158.5 Q337,178 337,202 L337,212 L254,212 Q214,212 191,196.5 Q168,181 168,147 M239,752 L273,752 L444,566 L324,566 L256,640 L188,566 L68,566"/> 
            <glyph glyph-name="ã" unicode="&#xE3;" horiz-adv-x="461" d=" M57,372 Q69,435 120,473.5 Q171,512 249,512 Q294,512 332.5,501.5 Q371,491 399.5,466.5 Q428,442 444.5,401.5 Q461,361 461,301 L461,0 L359,0 L346,64 Q320,32 282.5,12 Q245,-8 191,-8 Q159,-8 131,2 Q103,12 82.5,31 Q62,50 50,78.5 Q38,107 38,145 Q38,182 53.5,212.5 Q69,243 97.5,265 Q126,287 165.5,298.5 Q205,310 253,310 L337,310 L337,332 Q337,353 329.5,367 Q322,381 310,390 Q298,399 282,402.5 Q266,406 249,406 Q223,406 198.5,394.5 Q174,383 162,348 M168,147 Q168,129 181,113.5 Q194,98 220,98 Q241,98 262,105 Q283,112 299.5,125.5 Q316,139 326.5,158.5 Q337,178 337,202 L337,212 L254,212 Q214,212 191,196.5 Q168,181 168,147 M66,624 Q83,662 117,686.5 Q151,711 189,711 Q214,711 231,704.5 Q248,698 262,690.5 Q276,683 290,676.5 Q304,670 322,670 Q339,670 355.5,681.5 Q372,693 386,713 L451,658 Q434,620 400,595.5 Q366,571 328,571 Q303,571 286,577.5 Q269,584 254.5,591.5 Q240,599 226.5,605.5 Q213,612 195,612 Q178,612 161.5,600.5 Q145,589 131,569"/> 
            <glyph glyph-name="ä" unicode="&#xE4;" horiz-adv-x="461" d=" M57,372 Q69,435 120,473.5 Q171,512 249,512 Q294,512 332.5,501.5 Q371,491 399.5,466.5 Q428,442 444.5,401.5 Q461,361 461,301 L461,0 L359,0 L346,64 Q320,32 282.5,12 Q245,-8 191,-8 Q159,-8 131,2 Q103,12 82.5,31 Q62,50 50,78.5 Q38,107 38,145 Q38,182 53.5,212.5 Q69,243 97.5,265 Q126,287 165.5,298.5 Q205,310 253,310 L337,310 L337,332 Q337,353 329.5,367 Q322,381 310,390 Q298,399 282,402.5 Q266,406 249,406 Q223,406 198.5,394.5 Q174,383 162,348 M168,147 Q168,129 181,113.5 Q194,98 220,98 Q241,98 262,105 Q283,112 299.5,125.5 Q316,139 326.5,158.5 Q337,178 337,202 L337,212 L254,212 Q214,212 191,196.5 Q168,181 168,147 M79,651 Q79,682 98.5,702 Q118,722 150,722 Q182,722 201.5,702 Q221,682 221,651 Q221,620 201.5,600 Q182,580 150,580 Q118,580 98.5,600 Q79,620 79,651 M286,651 Q286,682 305.5,702 Q325,722 357,722 Q389,722 408.5,702 Q428,682 428,651 Q428,620 408.5,600 Q389,580 357,580 Q325,580 305.5,600 Q286,620 286,651"/> 
            <glyph glyph-name="å" unicode="&#xE5;" horiz-adv-x="461" d=" M57,372 Q69,435 120,473.5 Q171,512 249,512 Q294,512 332.5,501.5 Q371,491 399.5,466.5 Q428,442 444.5,401.5 Q461,361 461,301 L461,0 L359,0 L346,64 Q320,32 282.5,12 Q245,-8 191,-8 Q159,-8 131,2 Q103,12 82.5,31 Q62,50 50,78.5 Q38,107 38,145 Q38,182 53.5,212.5 Q69,243 97.5,265 Q126,287 165.5,298.5 Q205,310 253,310 L337,310 L337,332 Q337,353 329.5,367 Q322,381 310,390 Q298,399 282,402.5 Q266,406 249,406 Q223,406 198.5,394.5 Q174,383 162,348 M168,147 Q168,129 181,113.5 Q194,98 220,98 Q241,98 262,105 Q283,112 299.5,125.5 Q316,139 326.5,158.5 Q337,178 337,202 L337,212 L254,212 Q214,212 191,196.5 Q168,181 168,147 M148,655 Q148,699 177,728 Q206,757 251,757 Q296,757 325,728 Q354,699 354,655 Q354,611 325,582 Q296,553 251,553 Q206,553 177,582 Q148,611 148,655 M221,655 Q221,641 229,632 Q237,623 251,623 Q265,623 273,632 Q281,641 281,655 Q281,669 273,678 Q265,687 251,687 Q237,687 229,678 Q221,669 221,655"/> 
            <glyph glyph-name="æ" unicode="&#xE6;" horiz-adv-x="814" d=" M814,212 L467,212 Q468,191 476,170.5 Q484,150 499,134 Q514,118 535.5,108 Q557,98 586,98 Q629,98 657,117.5 Q685,137 708,176 L808,139 Q779,72 724.5,32 Q670,-8 579,-8 Q505,-8 456.5,22 Q408,52 379,97 Q339,37 292,14.5 Q245,-8 191,-8 Q159,-8 131,2 Q103,12 82.5,31 Q62,50 50,78.5 Q38,107 38,145 Q38,182 53.5,212.5 Q69,243 97.5,265 Q126,287 165.5,298.5 Q205,310 253,310 L337,310 L337,332 Q337,353 329.5,367 Q322,381 310,390 Q298,399 282,402.5 Q266,406 249,406 Q223,406 198.5,394.5 Q174,383 162,348 L57,372 Q69,435 120,473.5 Q171,512 249,512 Q300,512 343,498 Q386,484 415,451 Q444,479 484.5,495.5 Q525,512 579,512 Q642,512 686.5,488.5 Q731,465 759.5,428.5 Q788,392 801,348 Q814,304 814,263 M168,147 Q168,129 181,113.5 Q194,98 220,98 Q241,98 262,105 Q283,112 299.5,125.5 Q316,139 326.5,158.5 Q337,178 337,202 L337,212 L254,212 Q214,212 191,196 Q168,180 168,147 M579,406 Q555,406 536.5,397.5 Q518,389 504,375.5 Q490,362 481,345 Q472,328 469,310 L687,310 Q683,329 675,346 Q667,363 654,376.5 Q641,390 622.5,398 Q604,406 579,406"/> 
            <glyph glyph-name="ç" unicode="&#xE7;" horiz-adv-x="518" d=" M518,136 Q489,64 431.5,28 Q374,-8 289,-8 Q227,-8 181,12.5 Q135,33 104.5,68.5 Q74,104 58.5,151.5 Q43,199 43,252 Q43,305 58.5,352.5 Q74,400 104.5,435.5 Q135,471 181,491.5 Q227,512 289,512 Q374,512 431.5,476 Q489,440 518,368 L407,323 Q387,363 359,384.5 Q331,406 289,406 Q230,406 201.5,362.5 Q173,319 173,252 Q173,185 201.5,141.5 Q230,98 289,98 Q331,98 359,119.5 Q387,141 407,181 M287,-266 L139,-200 L280,-60 L370,-60"/> 
            <glyph glyph-name="è" unicode="&#xE8;" horiz-adv-x="520" d=" M520,212 L173,212 Q174,191 182,170.5 Q190,150 205,134 Q220,118 241.5,108 Q263,98 292,98 Q335,98 363,117.5 Q391,137 414,176 L514,139 Q485,72 430.5,32 Q376,-8 285,-8 Q220,-8 174,16 Q128,40 99,77.5 Q70,115 56.5,161 Q43,207 43,252 Q43,297 56.5,343 Q70,389 99,426.5 Q128,464 174,488 Q220,512 285,512 Q348,512 392.5,488.5 Q437,465 465.5,428.5 Q494,392 507,348 Q520,304 520,263 M285,406 Q261,406 242.5,397.5 Q224,389 210.5,375.5 Q197,362 188,345 Q179,328 176,310 L393,310 Q389,329 381,346 Q373,363 360,376.5 Q347,390 328.5,398 Q310,406 285,406 M351,560 L256,560 L119,708 L287,708"/> 
            <glyph glyph-name="é" unicode="&#xE9;" horiz-adv-x="520" d=" M520,212 L173,212 Q174,191 182,170.5 Q190,150 205,134 Q220,118 241.5,108 Q263,98 292,98 Q335,98 363,117.5 Q391,137 414,176 L514,139 Q485,72 430.5,32 Q376,-8 285,-8 Q220,-8 174,16 Q128,40 99,77.5 Q70,115 56.5,161 Q43,207 43,252 Q43,297 56.5,343 Q70,389 99,426.5 Q128,464 174,488 Q220,512 285,512 Q348,512 392.5,488.5 Q437,465 465.5,428.5 Q494,392 507,348 Q520,304 520,263 M285,406 Q261,406 242.5,397.5 Q224,389 210.5,375.5 Q197,362 188,345 Q179,328 176,310 L393,310 Q389,329 381,346 Q373,363 360,376.5 Q347,390 328.5,398 Q310,406 285,406 M266,708 L434,708 L297,560 L202,560"/> 
            <glyph glyph-name="ê" unicode="&#xEA;" horiz-adv-x="520" d=" M520,212 L173,212 Q174,191 182,170.5 Q190,150 205,134 Q220,118 241.5,108 Q263,98 292,98 Q335,98 363,117.5 Q391,137 414,176 L514,139 Q485,72 430.5,32 Q376,-8 285,-8 Q220,-8 174,16 Q128,40 99,77.5 Q70,115 56.5,161 Q43,207 43,252 Q43,297 56.5,343 Q70,389 99,426.5 Q128,464 174,488 Q220,512 285,512 Q348,512 392.5,488.5 Q437,465 465.5,428.5 Q494,392 507,348 Q520,304 520,263 M285,406 Q261,406 242.5,397.5 Q224,389 210.5,375.5 Q197,362 188,345 Q179,328 176,310 L393,310 Q389,329 381,346 Q373,363 360,376.5 Q347,390 328.5,398 Q310,406 285,406 M267,752 L301,752 L472,566 L352,566 L284,640 L216,566 L96,566"/> 
            <glyph glyph-name="ë" unicode="&#xEB;" horiz-adv-x="520" d=" M520,212 L173,212 Q174,191 182,170.5 Q190,150 205,134 Q220,118 241.5,108 Q263,98 292,98 Q335,98 363,117.5 Q391,137 414,176 L514,139 Q485,72 430.5,32 Q376,-8 285,-8 Q220,-8 174,16 Q128,40 99,77.5 Q70,115 56.5,161 Q43,207 43,252 Q43,297 56.5,343 Q70,389 99,426.5 Q128,464 174,488 Q220,512 285,512 Q348,512 392.5,488.5 Q437,465 465.5,428.5 Q494,392 507,348 Q520,304 520,263 M285,406 Q261,406 242.5,397.5 Q224,389 210.5,375.5 Q197,362 188,345 Q179,328 176,310 L393,310 Q389,329 381,346 Q373,363 360,376.5 Q347,390 328.5,398 Q310,406 285,406 M113,651 Q113,682 132.5,702 Q152,722 184,722 Q216,722 235.5,702 Q255,682 255,651 Q255,620 235.5,600 Q216,580 184,580 Q152,580 132.5,600 Q113,620 113,651 M320,651 Q320,682 339.5,702 Q359,722 391,722 Q423,722 442.5,702 Q462,682 462,651 Q462,620 442.5,600 Q423,580 391,580 Q359,580 339.5,600 Q320,620 320,651"/> 
            <glyph glyph-name="ì" unicode="&#xEC;" horiz-adv-x="216" d=" M192,504 L192,0 L68,0 L68,504 M472,560 L377,560 L240,708 L408,708"/> 
            <glyph glyph-name="í" unicode="&#xED;" horiz-adv-x="276" d=" M192,504 L192,0 L68,0 L68,504 M108,708 L276,708 L139,560 L44,560"/> 
            <glyph glyph-name="î" unicode="&#xEE;" horiz-adv-x="318" d=" M192,504 L192,0 L68,0 L68,504 M369,752 L403,752 L574,566 L454,566 L386,640 L318,566 L198,566"/> 
            <glyph glyph-name="ï" unicode="&#xEF;" horiz-adv-x="305" d=" M192,504 L192,0 L68,0 L68,504 M212,651 Q212,682 231.5,702 Q251,722 283,722 Q315,722 334.5,702 Q354,682 354,651 Q354,620 334.5,600 Q315,580 283,580 Q251,580 231.5,600 Q212,620 212,651 M419,651 Q419,682 438.5,702 Q458,722 490,722 Q522,722 541.5,702 Q561,682 561,651 Q561,620 541.5,600 Q522,580 490,580 Q458,580 438.5,600 Q419,620 419,651"/> 
            <glyph glyph-name="ð" unicode="&#xF0;" horiz-adv-x="541" d=" M184,587 L213,629 Q191,640 171.5,649.5 Q152,659 127,668 L189,759 Q234,739 273,717 L306,765 L382,713 L350,666 Q446,598 493.5,504 Q541,410 541,276 Q541,213 524.5,161 Q508,109 476.5,71.5 Q445,34 398.5,13 Q352,-8 292,-8 Q231,-8 184.5,12 Q138,32 106.5,67 Q75,102 59,149.5 Q43,197 43,252 Q43,307 59,354.5 Q75,402 106.5,437 Q138,472 184.5,492 Q231,512 292,512 Q314,512 335,506.5 Q356,501 373,492 Q344,543 291,581 L259,534 M173,252 Q173,221 180.5,193 Q188,165 202.5,144 Q217,123 239.5,110.5 Q262,98 292,98 Q322,98 344.5,110.5 Q367,123 381.5,144 Q396,165 403.5,193 Q411,221 411,252 Q411,283 403.5,311 Q396,339 381,360 Q366,381 344,393.5 Q322,406 292,406 Q262,406 239.5,393.5 Q217,381 202.5,360 Q188,339 180.5,311 Q173,283 173,252"/> 
            <glyph glyph-name="ñ" unicode="&#xF1;" horiz-adv-x="515" d=" M204,504 L204,423 Q232,463 271.5,487.5 Q311,512 360,512 Q428,512 471.5,474 Q515,436 515,360 L515,0 L391,0 L391,323 Q391,368 371,387 Q351,406 319,406 Q296,406 275.5,392.5 Q255,379 239,353 Q223,327 213.5,289 Q204,251 204,201 L204,0 L80,0 L80,504 M113,624 Q130,662 164,686.5 Q198,711 236,711 Q261,711 278,704.5 Q295,698 309,690.5 Q323,683 337,676.5 Q351,670 369,670 Q386,670 402.5,681.5 Q419,693 433,713 L498,658 Q481,620 447,595.5 Q413,571 375,571 Q350,571 333,577.5 Q316,584 301.5,591.5 Q287,599 273.5,605.5 Q260,612 242,612 Q225,612 208.5,600.5 Q192,589 178,569"/> 
            <glyph glyph-name="ò" unicode="&#xF2;" horiz-adv-x="555" d=" M43,252 Q43,307 60,354.5 Q77,402 110,437 Q143,472 190.5,492 Q238,512 299,512 Q360,512 407.5,492 Q455,472 488,437 Q521,402 538,354.5 Q555,307 555,252 Q555,197 538,149.5 Q521,102 488,67 Q455,32 407.5,12 Q360,-8 299,-8 Q238,-8 190.5,12 Q143,32 110,67 Q77,102 60,149.5 Q43,197 43,252 M173,252 Q173,221 181.5,193 Q190,165 206,144 Q222,123 245.5,110.5 Q269,98 299,98 Q329,98 352.5,110.5 Q376,123 392,144 Q408,165 416.5,193 Q425,221 425,252 Q425,283 416.5,311 Q408,339 392,360 Q376,381 352.5,393.5 Q329,406 299,406 Q269,406 245.5,393.5 Q222,381 206,360 Q190,339 181.5,311 Q173,283 173,252 M369,560 L274,560 L137,708 L305,708"/> 
            <glyph glyph-name="ó" unicode="&#xF3;" horiz-adv-x="555" d=" M43,252 Q43,307 60,354.5 Q77,402 110,437 Q143,472 190.5,492 Q238,512 299,512 Q360,512 407.5,492 Q455,472 488,437 Q521,402 538,354.5 Q555,307 555,252 Q555,197 538,149.5 Q521,102 488,67 Q455,32 407.5,12 Q360,-8 299,-8 Q238,-8 190.5,12 Q143,32 110,67 Q77,102 60,149.5 Q43,197 43,252 M173,252 Q173,221 181.5,193 Q190,165 206,144 Q222,123 245.5,110.5 Q269,98 299,98 Q329,98 352.5,110.5 Q376,123 392,144 Q408,165 416.5,193 Q425,221 425,252 Q425,283 416.5,311 Q408,339 392,360 Q376,381 352.5,393.5 Q329,406 299,406 Q269,406 245.5,393.5 Q222,381 206,360 Q190,339 181.5,311 Q173,283 173,252 M285,708 L453,708 L316,560 L221,560"/> 
            <glyph glyph-name="ô" unicode="&#xF4;" horiz-adv-x="555" d=" M43,252 Q43,307 60,354.5 Q77,402 110,437 Q143,472 190.5,492 Q238,512 299,512 Q360,512 407.5,492 Q455,472 488,437 Q521,402 538,354.5 Q555,307 555,252 Q555,197 538,149.5 Q521,102 488,67 Q455,32 407.5,12 Q360,-8 299,-8 Q238,-8 190.5,12 Q143,32 110,67 Q77,102 60,149.5 Q43,197 43,252 M173,252 Q173,221 181.5,193 Q190,165 206,144 Q222,123 245.5,110.5 Q269,98 299,98 Q329,98 352.5,110.5 Q376,123 392,144 Q408,165 416.5,193 Q425,221 425,252 Q425,283 416.5,311 Q408,339 392,360 Q376,381 352.5,393.5 Q329,406 299,406 Q269,406 245.5,393.5 Q222,381 206,360 Q190,339 181.5,311 Q173,283 173,252 M282,752 L316,752 L487,566 L367,566 L299,640 L231,566 L111,566"/> 
            <glyph glyph-name="õ" unicode="&#xF5;" horiz-adv-x="555" d=" M43,252 Q43,307 60,354.5 Q77,402 110,437 Q143,472 190.5,492 Q238,512 299,512 Q360,512 407.5,492 Q455,472 488,437 Q521,402 538,354.5 Q555,307 555,252 Q555,197 538,149.5 Q521,102 488,67 Q455,32 407.5,12 Q360,-8 299,-8 Q238,-8 190.5,12 Q143,32 110,67 Q77,102 60,149.5 Q43,197 43,252 M173,252 Q173,221 181.5,193 Q190,165 206,144 Q222,123 245.5,110.5 Q269,98 299,98 Q329,98 352.5,110.5 Q376,123 392,144 Q408,165 416.5,193 Q425,221 425,252 Q425,283 416.5,311 Q408,339 392,360 Q376,381 352.5,393.5 Q329,406 299,406 Q269,406 245.5,393.5 Q222,381 206,360 Q190,339 181.5,311 Q173,283 173,252 M107,624 Q124,662 158,686.5 Q192,711 230,711 Q255,711 272,704.5 Q289,698 303,690.5 Q317,683 331,676.5 Q345,670 363,670 Q380,670 396.5,681.5 Q413,693 427,713 L492,658 Q475,620 441,595.5 Q407,571 369,571 Q344,571 327,577.5 Q310,584 295.5,591.5 Q281,599 267.5,605.5 Q254,612 236,612 Q219,612 202.5,600.5 Q186,589 172,569"/> 
            <glyph glyph-name="ö" unicode="&#xF6;" horiz-adv-x="555" d=" M43,252 Q43,307 60,354.5 Q77,402 110,437 Q143,472 190.5,492 Q238,512 299,512 Q360,512 407.5,492 Q455,472 488,437 Q521,402 538,354.5 Q555,307 555,252 Q555,197 538,149.5 Q521,102 488,67 Q455,32 407.5,12 Q360,-8 299,-8 Q238,-8 190.5,12 Q143,32 110,67 Q77,102 60,149.5 Q43,197 43,252 M173,252 Q173,221 181.5,193 Q190,165 206,144 Q222,123 245.5,110.5 Q269,98 299,98 Q329,98 352.5,110.5 Q376,123 392,144 Q408,165 416.5,193 Q425,221 425,252 Q425,283 416.5,311 Q408,339 392,360 Q376,381 352.5,393.5 Q329,406 299,406 Q269,406 245.5,393.5 Q222,381 206,360 Q190,339 181.5,311 Q173,283 173,252 M125,651 Q125,682 144.5,702 Q164,722 196,722 Q228,722 247.5,702 Q267,682 267,651 Q267,620 247.5,600 Q228,580 196,580 Q164,580 144.5,600 Q125,620 125,651 M332,651 Q332,682 351.5,702 Q371,722 403,722 Q435,722 454.5,702 Q474,682 474,651 Q474,620 454.5,600 Q435,580 403,580 Q371,580 351.5,600 Q332,620 332,651"/> 
            <glyph glyph-name="÷" unicode="&#xF7;" horiz-adv-x="518" d=" M196,124 Q196,160 220,184 Q244,208 280,208 Q316,208 340,184 Q364,160 364,124 Q364,88 340,64 Q316,40 280,40 Q244,40 220,64 Q196,88 196,124 M196,506 Q196,542 220,566 Q244,590 280,590 Q316,590 340,566 Q364,542 364,506 Q364,470 340,446 Q316,422 280,422 Q244,422 220,446 Q196,470 196,506 M42,369 L518,369 L518,261 L42,261"/> 
            <glyph glyph-name="ø" unicode="&#xF8;" horiz-adv-x="562" d=" M43,252 Q43,307 60,354.5 Q77,402 110,437 Q143,472 190.5,492 Q238,512 299,512 Q332,512 361.5,505.5 Q391,499 416,488 L476,564 L562,501 L500,422 Q555,353 555,252 Q555,197 538,149.5 Q521,102 488,67 Q455,32 407.5,12 Q360,-8 299,-8 Q266,-8 236.5,-1.5 Q207,5 182,16 L122,-60 L36,3 L98,82 Q43,151 43,252 M425,252 Q425,287 415,314 L253,107 Q274,98 299,98 Q329,98 352.5,110.5 Q376,123 392,144 Q408,165 416.5,193 Q425,221 425,252 M173,252 Q173,217 183,190 L345,397 Q324,406 299,406 Q269,406 245.5,393.5 Q222,381 206,360 Q190,339 181.5,311 Q173,283 173,252"/> 
            <glyph glyph-name="ù" unicode="&#xF9;" horiz-adv-x="507" d=" M383,0 L383,81 Q355,41 315.5,16.5 Q276,-8 227,-8 Q159,-8 115.5,30 Q72,68 72,144 L72,504 L196,504 L196,181 Q196,136 216,117 Q236,98 268,98 Q290,98 311,111.5 Q332,125 348,151 Q364,177 373.5,215 Q383,253 383,303 L383,504 L507,504 L507,0 M354,560 L259,560 L122,708 L290,708"/> 
            <glyph glyph-name="ú" unicode="&#xFA;" horiz-adv-x="507" d=" M383,0 L383,81 Q355,41 315.5,16.5 Q276,-8 227,-8 Q159,-8 115.5,30 Q72,68 72,144 L72,504 L196,504 L196,181 Q196,136 216,117 Q236,98 268,98 Q290,98 311,111.5 Q332,125 348,151 Q364,177 373.5,215 Q383,253 383,303 L383,504 L507,504 L507,0 M284,708 L452,708 L315,560 L220,560"/> 
            <glyph glyph-name="û" unicode="&#xFB;" horiz-adv-x="507" d=" M383,0 L383,81 Q355,41 315.5,16.5 Q276,-8 227,-8 Q159,-8 115.5,30 Q72,68 72,144 L72,504 L196,504 L196,181 Q196,136 216,117 Q236,98 268,98 Q290,98 311,111.5 Q332,125 348,151 Q364,177 373.5,215 Q383,253 383,303 L383,504 L507,504 L507,0 M274,752 L308,752 L479,566 L359,566 L291,640 L223,566 L103,566"/> 
            <glyph glyph-name="ü" unicode="&#xFC;" horiz-adv-x="507" d=" M383,0 L383,81 Q355,41 315.5,16.5 Q276,-8 227,-8 Q159,-8 115.5,30 Q72,68 72,144 L72,504 L196,504 L196,181 Q196,136 216,117 Q236,98 268,98 Q290,98 311,111.5 Q332,125 348,151 Q364,177 373.5,215 Q383,253 383,303 L383,504 L507,504 L507,0 M120,651 Q120,682 139.5,702 Q159,722 191,722 Q223,722 242.5,702 Q262,682 262,651 Q262,620 242.5,600 Q223,580 191,580 Q159,580 139.5,600 Q120,620 120,651 M327,651 Q327,682 346.5,702 Q366,722 398,722 Q430,722 449.5,702 Q469,682 469,651 Q469,620 449.5,600 Q430,580 398,580 Q366,580 346.5,600 Q327,620 327,651"/> 
            <glyph glyph-name="ý" unicode="&#xFD;" horiz-adv-x="479" d=" M128,504 L245,188 L355,504 L479,504 L219,-204 L99,-204 L186,32 L3,504 M237,708 L405,708 L268,560 L173,560"/> 
            <glyph glyph-name="þ" unicode="&#xFE;" horiz-adv-x="556" d=" M556,252 Q556,194 541.5,146 Q527,98 498,64 Q469,30 426,11 Q383,-8 326,-8 Q303,-8 283,-2.5 Q263,3 247,12 Q231,21 220,31.5 Q209,42 204,52 L204,-204 L80,-204 L80,708 L204,708 L204,458 Q221,479 254.5,495.5 Q288,512 326,512 Q383,512 426,493 Q469,474 498,440 Q527,406 541.5,358 Q556,310 556,252 M426,252 Q426,327 392,366.5 Q358,406 309,406 Q260,406 226.5,366.5 Q193,327 193,252 Q193,177 226.5,137.5 Q260,98 309,98 Q358,98 392,137.5 Q426,177 426,252"/> 
            <glyph glyph-name="ÿ" unicode="&#xFF;" horiz-adv-x="479" d=" M128,504 L245,188 L355,504 L479,504 L219,-204 L99,-204 L186,32 L3,504 M69,651 Q69,682 88.5,702 Q108,722 140,722 Q172,722 191.5,702 Q211,682 211,651 Q211,620 191.5,600 Q172,580 140,580 Q108,580 88.5,600 Q69,620 69,651 M276,651 Q276,682 295.5,702 Q315,722 347,722 Q379,722 398.5,702 Q418,682 418,651 Q418,620 398.5,600 Q379,580 347,580 Q315,580 295.5,600 Q276,620 276,651"/> 
            <glyph glyph-name="Ā" unicode="&#x100;" horiz-adv-x="609" d=" M418,165 L196,165 L145,0 L5,0 L242,700 L372,700 L609,0 L469,0 M233,285 L381,285 L307,528 M173,904 L442,904 L442,794 L173,794"/> 
            <glyph glyph-name="ā" unicode="&#x101;" horiz-adv-x="461" d=" M57,372 Q69,435 120,473.5 Q171,512 249,512 Q294,512 332.5,501.5 Q371,491 399.5,466.5 Q428,442 444.5,401.5 Q461,361 461,301 L461,0 L359,0 L346,64 Q320,32 282.5,12 Q245,-8 191,-8 Q159,-8 131,2 Q103,12 82.5,31 Q62,50 50,78.5 Q38,107 38,145 Q38,182 53.5,212.5 Q69,243 97.5,265 Q126,287 165.5,298.5 Q205,310 253,310 L337,310 L337,332 Q337,353 329.5,367 Q322,381 310,390 Q298,399 282,402.5 Q266,406 249,406 Q223,406 198.5,394.5 Q174,383 162,348 M168,147 Q168,129 181,113.5 Q194,98 220,98 Q241,98 262,105 Q283,112 299.5,125.5 Q316,139 326.5,158.5 Q337,178 337,202 L337,212 L254,212 Q214,212 191,196.5 Q168,181 168,147 M120,964 L389,964 L389,854 L120,854"/> 
            <glyph glyph-name="Ă" unicode="&#x102;" horiz-adv-x="609" d=" M418,165 L196,165 L145,0 L5,0 L242,700 L372,700 L609,0 L469,0 M233,285 L381,285 L307,528 M280,896 Q280,884 287.5,876 Q295,868 307,868 Q319,868 326.5,876 Q334,884 334,896 L425,896 Q425,874 417,854.5 Q409,835 393.5,820 Q378,805 356,796 Q334,787 307,787 Q280,787 258,796 Q236,805 220.5,820 Q205,835 197,854.5 Q189,874 189,896"/> 
            <glyph glyph-name="ă" unicode="&#x103;" horiz-adv-x="461" d=" M57,372 Q69,435 120,473.5 Q171,512 249,512 Q294,512 332.5,501.5 Q371,491 399.5,466.5 Q428,442 444.5,401.5 Q461,361 461,301 L461,0 L359,0 L346,64 Q320,32 282.5,12 Q245,-8 191,-8 Q159,-8 131,2 Q103,12 82.5,31 Q62,50 50,78.5 Q38,107 38,145 Q38,182 53.5,212.5 Q69,243 97.5,265 Q126,287 165.5,298.5 Q205,310 253,310 L337,310 L337,332 Q337,353 329.5,367 Q322,381 310,390 Q298,399 282,402.5 Q266,406 249,406 Q223,406 198.5,394.5 Q174,383 162,348 M168,147 Q168,129 181,113.5 Q194,98 220,98 Q241,98 262,105 Q283,112 299.5,125.5 Q316,139 326.5,158.5 Q337,178 337,202 L337,212 L254,212 Q214,212 191,196.5 Q168,181 168,147 M231,700 Q231,688 238.5,680 Q246,672 258,672 Q270,672 277.5,680 Q285,688 285,700 L376,700 Q376,678 368,658.5 Q360,639 344.5,624 Q329,609 307,600 Q285,591 258,591 Q231,591 209,600 Q187,609 171.5,624 Q156,639 148,658.5 Q140,678 140,700"/> 
            <glyph glyph-name="Ą" unicode="&#x104;" horiz-adv-x="679" d=" M418,165 L196,165 L145,0 L5,0 L242,700 L372,700 L609,0 Q583,-22 567,-42 Q551,-62 551,-78 Q551,-104 577,-104 Q591,-104 601,-94.5 Q611,-85 626,-65 L679,-108 Q656,-145 630,-165 Q604,-185 563,-185 Q520,-185 493,-161.5 Q466,-138 466,-95 Q466,-66 484.5,-40.5 Q503,-15 529,0 L469,0 M233,285 L381,285 L307,528"/> 
            <glyph glyph-name="ą" unicode="&#x105;" horiz-adv-x="531" d=" M359,0 L346,64 Q320,32 282.5,12 Q245,-8 191,-8 Q159,-8 131,2 Q103,12 82.5,31 Q62,50 50,78.5 Q38,107 38,145 Q38,182 53.5,212.5 Q69,243 97.5,265 Q126,287 165.5,298.5 Q205,310 253,310 L337,310 L337,332 Q337,353 329.5,367 Q322,381 310,390 Q298,399 282,402.5 Q266,406 249,406 Q223,406 198.5,394.5 Q174,383 162,348 L57,372 Q69,435 120,473.5 Q171,512 249,512 Q294,512 332.5,501.5 Q371,491 399.5,466.5 Q428,442 444.5,401.5 Q461,361 461,301 L461,0 Q435,-22 419,-42 Q403,-62 403,-78 Q403,-104 429,-104 Q443,-104 453,-94.5 Q463,-85 478,-65 L531,-108 Q508,-145 482,-165 Q456,-185 415,-185 Q372,-185 345,-161.5 Q318,-138 318,-95 Q318,-66 336.5,-40.5 Q355,-15 381,0 M168,147 Q168,129 181,113.5 Q194,98 220,98 Q241,98 262,105 Q283,112 299.5,125.5 Q316,139 326.5,158.5 Q337,178 337,202 L337,212 L254,212 Q214,212 191,196.5 Q168,181 168,147"/> 
            <glyph glyph-name="Ć" unicode="&#x106;" horiz-adv-x="669" d=" M552,466 Q532,519 492,553.5 Q452,588 379,588 Q338,588 302,573.5 Q266,559 239,529.5 Q212,500 196,455.5 Q180,411 180,350 Q180,289 196,244.5 Q212,200 239,170.5 Q266,141 302,126.5 Q338,112 379,112 Q452,112 492,146.5 Q532,181 552,234 L669,204 Q644,103 569,47.5 Q494,-8 379,-8 Q313,-8 253.5,15 Q194,38 148,83 Q102,128 75,195 Q48,262 48,350 Q48,438 75,505 Q102,572 148,617 Q194,662 253.5,685 Q313,708 379,708 Q494,708 569,652.5 Q644,597 669,496 M369,904 L537,904 L400,756 L305,756"/> 
            <glyph glyph-name="ć" unicode="&#x107;" horiz-adv-x="518" d=" M518,136 Q489,64 431.5,28 Q374,-8 289,-8 Q227,-8 181,12.5 Q135,33 104.5,68.5 Q74,104 58.5,151.5 Q43,199 43,252 Q43,305 58.5,352.5 Q74,400 104.5,435.5 Q135,471 181,491.5 Q227,512 289,512 Q374,512 431.5,476 Q489,440 518,368 L407,323 Q387,363 359,384.5 Q331,406 289,406 Q230,406 201.5,362.5 Q173,319 173,252 Q173,185 201.5,141.5 Q230,98 289,98 Q331,98 359,119.5 Q387,141 407,181 M280,708 L448,708 L311,560 L216,560"/> 
            <glyph glyph-name="Ĉ" unicode="&#x108;" horiz-adv-x="669" d=" M552,466 Q532,519 492,553.5 Q452,588 379,588 Q338,588 302,573.5 Q266,559 239,529.5 Q212,500 196,455.5 Q180,411 180,350 Q180,289 196,244.5 Q212,200 239,170.5 Q266,141 302,126.5 Q338,112 379,112 Q452,112 492,146.5 Q532,181 552,234 L669,204 Q644,103 569,47.5 Q494,-8 379,-8 Q313,-8 253.5,15 Q194,38 148,83 Q102,128 75,195 Q48,262 48,350 Q48,438 75,505 Q102,572 148,617 Q194,662 253.5,685 Q313,708 379,708 Q494,708 569,652.5 Q644,597 669,496 M363,948 L397,948 L568,762 L448,762 L380,836 L312,762 L192,762"/> 
            <glyph glyph-name="ĉ" unicode="&#x109;" horiz-adv-x="518" d=" M518,136 Q489,64 431.5,28 Q374,-8 289,-8 Q227,-8 181,12.5 Q135,33 104.5,68.5 Q74,104 58.5,151.5 Q43,199 43,252 Q43,305 58.5,352.5 Q74,400 104.5,435.5 Q135,471 181,491.5 Q227,512 289,512 Q374,512 431.5,476 Q489,440 518,368 L407,323 Q387,363 359,384.5 Q331,406 289,406 Q230,406 201.5,362.5 Q173,319 173,252 Q173,185 201.5,141.5 Q230,98 289,98 Q331,98 359,119.5 Q387,141 407,181 M275,752 L309,752 L480,566 L360,566 L292,640 L224,566 L104,566"/> 
            <glyph glyph-name="Ċ" unicode="&#x10A;" horiz-adv-x="669" d=" M552,466 Q532,519 492,553.5 Q452,588 379,588 Q338,588 302,573.5 Q266,559 239,529.5 Q212,500 196,455.5 Q180,411 180,350 Q180,289 196,244.5 Q212,200 239,170.5 Q266,141 302,126.5 Q338,112 379,112 Q452,112 492,146.5 Q532,181 552,234 L669,204 Q644,103 569,47.5 Q494,-8 379,-8 Q313,-8 253.5,15 Q194,38 148,83 Q102,128 75,195 Q48,262 48,350 Q48,438 75,505 Q102,572 148,617 Q194,662 253.5,685 Q313,708 379,708 Q494,708 569,652.5 Q644,597 669,496 M301,845 Q301,879 323.5,902 Q346,925 381,925 Q416,925 438.5,902 Q461,879 461,845 Q461,811 438.5,788 Q416,765 381,765 Q346,765 323.5,788 Q301,811 301,845"/> 
            <glyph glyph-name="ċ" unicode="&#x10B;" horiz-adv-x="518" d=" M518,136 Q489,64 431.5,28 Q374,-8 289,-8 Q227,-8 181,12.5 Q135,33 104.5,68.5 Q74,104 58.5,151.5 Q43,199 43,252 Q43,305 58.5,352.5 Q74,400 104.5,435.5 Q135,471 181,491.5 Q227,512 289,512 Q374,512 431.5,476 Q489,440 518,368 L407,323 Q387,363 359,384.5 Q331,406 289,406 Q230,406 201.5,362.5 Q173,319 173,252 Q173,185 201.5,141.5 Q230,98 289,98 Q331,98 359,119.5 Q387,141 407,181 M210,649 Q210,683 232.5,706 Q255,729 290,729 Q325,729 347.5,706 Q370,683 370,649 Q370,615 347.5,592 Q325,569 290,569 Q255,569 232.5,592 Q210,615 210,649"/> 
            <glyph glyph-name="Č" unicode="&#x10C;" horiz-adv-x="669" d=" M552,466 Q532,519 492,553.5 Q452,588 379,588 Q338,588 302,573.5 Q266,559 239,529.5 Q212,500 196,455.5 Q180,411 180,350 Q180,289 196,244.5 Q212,200 239,170.5 Q266,141 302,126.5 Q338,112 379,112 Q452,112 492,146.5 Q532,181 552,234 L669,204 Q644,103 569,47.5 Q494,-8 379,-8 Q313,-8 253.5,15 Q194,38 148,83 Q102,128 75,195 Q48,262 48,350 Q48,438 75,505 Q102,572 148,617 Q194,662 253.5,685 Q313,708 379,708 Q494,708 569,652.5 Q644,597 669,496 M192,948 L312,948 L380,874 L448,948 L568,948 L397,762 L363,762"/> 
            <glyph glyph-name="č" unicode="&#x10D;" horiz-adv-x="518" d=" M518,136 Q489,64 431.5,28 Q374,-8 289,-8 Q227,-8 181,12.5 Q135,33 104.5,68.5 Q74,104 58.5,151.5 Q43,199 43,252 Q43,305 58.5,352.5 Q74,400 104.5,435.5 Q135,471 181,491.5 Q227,512 289,512 Q374,512 431.5,476 Q489,440 518,368 L407,323 Q387,363 359,384.5 Q331,406 289,406 Q230,406 201.5,362.5 Q173,319 173,252 Q173,185 201.5,141.5 Q230,98 289,98 Q331,98 359,119.5 Q387,141 407,181 M102,752 L222,752 L290,678 L358,752 L478,752 L307,566 L273,566"/> 
            <glyph glyph-name="Ď" unicode="&#x10E;" horiz-adv-x="635" d=" M90,0 L90,700 L309,700 Q371,700 429.5,680 Q488,660 534,617 Q580,574 607.5,508 Q635,442 635,350 Q635,258 607.5,192 Q580,126 534,83 Q488,40 429.5,20 Q371,0 309,0 M268,120 Q310,120 352,130 Q394,140 427.5,165.5 Q461,191 482,235.5 Q503,280 503,350 Q503,420 482,464.5 Q461,509 427.5,534.5 Q394,560 352,570 Q310,580 268,580 L220,580 L220,120 M87,948 L207,948 L275,874 L343,948 L463,948 L292,762 L258,762"/> 
            <glyph glyph-name="ď" unicode="&#x10F;" horiz-adv-x="746" d=" M610,738 L746,738 L664,554 L585,554 M43,252 Q43,310 57.5,358 Q72,406 101,440 Q130,474 173,493 Q216,512 273,512 Q311,512 344.5,495.5 Q378,479 395,458 L395,708 L519,708 L519,0 L395,0 L395,52 Q390,42 379,31.5 Q368,21 352,12 Q336,3 316,-2.5 Q296,-8 273,-8 Q216,-8 173,11 Q130,30 101,64 Q72,98 57.5,146 Q43,194 43,252 M173,252 Q173,177 207,137.5 Q241,98 290,98 Q339,98 372.5,137.5 Q406,177 406,252 Q406,327 372.5,366.5 Q339,406 290,406 Q241,406 207,366.5 Q173,327 173,252"/> 
            <glyph glyph-name="Đ" unicode="&#x110;" horiz-adv-x="660" d=" M22,404 L115,404 L115,700 L334,700 Q396,700 454.5,680 Q513,660 559,617 Q605,574 632.5,508 Q660,442 660,350 Q660,258 632.5,192 Q605,126 559,83 Q513,40 454.5,20 Q396,0 334,0 L115,0 L115,296 L22,296 M245,580 L245,404 L338,404 L338,296 L245,296 L245,120 L293,120 Q335,120 377,130 Q419,140 452.5,165.5 Q486,191 507,235.5 Q528,280 528,350 Q528,420 507,464.5 Q486,509 452.5,534.5 Q419,560 377,570 Q335,580 293,580"/> 
            <glyph glyph-name="đ" unicode="&#x111;" horiz-adv-x="591" d=" M284,651 L395,651 L395,708 L519,708 L519,651 L591,651 L591,559 L519,559 L519,0 L395,0 L395,52 Q390,42 379,31.5 Q368,21 352,12 Q336,3 316,-2.5 Q296,-8 273,-8 Q216,-8 173,11 Q130,30 101,64 Q72,98 57.5,146 Q43,194 43,252 Q43,310 57.5,358 Q72,406 101,440 Q130,474 173,493 Q216,512 273,512 Q311,512 344.5,495.5 Q378,479 395,458 L395,559 L284,559 M173,252 Q173,177 207,137.5 Q241,98 290,98 Q339,98 372.5,137.5 Q406,177 406,252 Q406,327 372.5,366.5 Q339,406 290,406 Q241,406 207,366.5 Q173,327 173,252"/> 
            <glyph glyph-name="Ē" unicode="&#x112;" horiz-adv-x="533" d=" M523,700 L523,580 L220,580 L220,433 L463,433 L463,313 L220,313 L220,120 L533,120 L533,0 L90,0 L90,700 M181,904 L450,904 L450,794 L181,794"/> 
            <glyph glyph-name="ē" unicode="&#x113;" horiz-adv-x="520" d=" M520,212 L173,212 Q174,191 182,170.5 Q190,150 205,134 Q220,118 241.5,108 Q263,98 292,98 Q335,98 363,117.5 Q391,137 414,176 L514,139 Q485,72 430.5,32 Q376,-8 285,-8 Q220,-8 174,16 Q128,40 99,77.5 Q70,115 56.5,161 Q43,207 43,252 Q43,297 56.5,343 Q70,389 99,426.5 Q128,464 174,488 Q220,512 285,512 Q348,512 392.5,488.5 Q437,465 465.5,428.5 Q494,392 507,348 Q520,304 520,263 M285,406 Q261,406 242.5,397.5 Q224,389 210.5,375.5 Q197,362 188,345 Q179,328 176,310 L393,310 Q389,329 381,346 Q373,363 360,376.5 Q347,390 328.5,398 Q310,406 285,406 M151,66244 L420,66244 L420,66134 L151,66134"/> 
            <glyph glyph-name="Ĕ" unicode="&#x114;" horiz-adv-x="533" d=" M523,700 L523,580 L220,580 L220,433 L463,433 L463,313 L220,313 L220,120 L533,120 L533,0 L90,0 L90,700 M280,896 Q280,884 287.5,876 Q295,868 307,868 Q319,868 326.5,876 Q334,884 334,896 L425,896 Q425,874 417,854.5 Q409,835 393.5,820 Q378,805 356,796 Q334,787 307,787 Q280,787 258,796 Q236,805 220.5,820 Q205,835 197,854.5 Q189,874 189,896"/> 
            <glyph glyph-name="ĕ" unicode="&#x115;" horiz-adv-x="520" d=" M520,212 L173,212 Q174,191 182,170.5 Q190,150 205,134 Q220,118 241.5,108 Q263,98 292,98 Q335,98 363,117.5 Q391,137 414,176 L514,139 Q485,72 430.5,32 Q376,-8 285,-8 Q220,-8 174,16 Q128,40 99,77.5 Q70,115 56.5,161 Q43,207 43,252 Q43,297 56.5,343 Q70,389 99,426.5 Q128,464 174,488 Q220,512 285,512 Q348,512 392.5,488.5 Q437,465 465.5,428.5 Q494,392 507,348 Q520,304 520,263 M285,406 Q261,406 242.5,397.5 Q224,389 210.5,375.5 Q197,362 188,345 Q179,328 176,310 L393,310 Q389,329 381,346 Q373,363 360,376.5 Q347,390 328.5,398 Q310,406 285,406 M255,700 Q255,688 262.5,680 Q270,672 282,672 Q294,672 301.5,680 Q309,688 309,700 L400,700 Q400,678 392,658.5 Q384,639 368.5,624 Q353,609 331,600 Q309,591 282,591 Q255,591 233,600 Q211,609 195.5,624 Q180,639 172,658.5 Q164,678 164,700"/> 
            <glyph glyph-name="Ė" unicode="&#x116;" horiz-adv-x="533" d=" M523,700 L523,580 L220,580 L220,433 L463,433 L463,313 L220,313 L220,120 L533,120 L533,0 L90,0 L90,700 M223,845 Q223,879 245.5,902 Q268,925 303,925 Q338,925 360.5,902 Q383,879 383,845 Q383,811 360.5,788 Q338,765 303,765 Q268,765 245.5,788 Q223,811 223,845"/> 
            <glyph glyph-name="ė" unicode="&#x117;" horiz-adv-x="520" d=" M520,212 L173,212 Q174,191 182,170.5 Q190,150 205,134 Q220,118 241.5,108 Q263,98 292,98 Q335,98 363,117.5 Q391,137 414,176 L514,139 Q485,72 430.5,32 Q376,-8 285,-8 Q220,-8 174,16 Q128,40 99,77.5 Q70,115 56.5,161 Q43,207 43,252 Q43,297 56.5,343 Q70,389 99,426.5 Q128,464 174,488 Q220,512 285,512 Q348,512 392.5,488.5 Q437,465 465.5,428.5 Q494,392 507,348 Q520,304 520,263 M285,406 Q261,406 242.5,397.5 Q224,389 210.5,375.5 Q197,362 188,345 Q179,328 176,310 L393,310 Q389,329 381,346 Q373,363 360,376.5 Q347,390 328.5,398 Q310,406 285,406 M203,649 Q203,683 225.5,706 Q248,729 283,729 Q318,729 340.5,706 Q363,683 363,649 Q363,615 340.5,592 Q318,569 283,569 Q248,569 225.5,592 Q203,615 203,649"/> 
            <glyph glyph-name="Ę" unicode="&#x118;" horiz-adv-x="603" d=" M90,0 L90,700 L523,700 L523,580 L220,580 L220,433 L463,433 L463,313 L220,313 L220,120 L533,120 L533,0 Q507,-22 491,-42 Q475,-62 475,-78 Q475,-104 501,-104 Q515,-104 525,-94.5 Q535,-85 550,-65 L603,-108 Q580,-145 554,-165 Q528,-185 487,-185 Q444,-185 417,-161.5 Q390,-138 390,-95 Q390,-66 408.5,-40.5 Q427,-15 453,0"/> 
            <glyph glyph-name="ę" unicode="&#x119;" horiz-adv-x="520" d=" M520,212 L173,212 Q174,191 182,170.5 Q190,150 205,134 Q220,118 241.5,108 Q263,98 292,98 Q335,98 363,117.5 Q391,137 414,176 L514,139 Q491,86 453.5,50 Q416,14 358,0 Q332,-22 316,-42 Q300,-62 300,-78 Q300,-104 326,-104 Q340,-104 350,-94.5 Q360,-85 375,-65 L428,-108 Q405,-145 379,-165 Q353,-185 312,-185 Q269,-185 242,-161.5 Q215,-138 215,-95 Q215,-69 229.5,-46 Q244,-23 266,-7 Q206,-4 164,21 Q122,46 95,83 Q68,120 55.5,164.5 Q43,209 43,252 Q43,297 56.5,343 Q70,389 99,426.5 Q128,464 174,488 Q220,512 285,512 Q348,512 392.5,488.5 Q437,465 465.5,428.5 Q494,392 507,348 Q520,304 520,263 M285,406 Q261,406 242.5,397.5 Q224,389 210.5,375.5 Q197,362 188,345 Q179,328 176,310 L393,310 Q389,329 381,346 Q373,363 360,376.5 Q347,390 328.5,398 Q310,406 285,406"/> 
            <glyph glyph-name="Ě" unicode="&#x11A;" horiz-adv-x="533" d=" M523,700 L523,580 L220,580 L220,433 L463,433 L463,313 L220,313 L220,120 L533,120 L533,0 L90,0 L90,700 M118,948 L238,948 L306,874 L374,948 L494,948 L323,762 L289,762"/> 
            <glyph glyph-name="ě" unicode="&#x11B;" horiz-adv-x="520" d=" M520,212 L173,212 Q174,191 182,170.5 Q190,150 205,134 Q220,118 241.5,108 Q263,98 292,98 Q335,98 363,117.5 Q391,137 414,176 L514,139 Q485,72 430.5,32 Q376,-8 285,-8 Q220,-8 174,16 Q128,40 99,77.5 Q70,115 56.5,161 Q43,207 43,252 Q43,297 56.5,343 Q70,389 99,426.5 Q128,464 174,488 Q220,512 285,512 Q348,512 392.5,488.5 Q437,465 465.5,428.5 Q494,392 507,348 Q520,304 520,263 M285,406 Q261,406 242.5,397.5 Q224,389 210.5,375.5 Q197,362 188,345 Q179,328 176,310 L393,310 Q389,329 381,346 Q373,363 360,376.5 Q347,390 328.5,398 Q310,406 285,406 M97,752 L217,752 L285,678 L353,752 L473,752 L302,566 L268,566"/> 
            <glyph glyph-name="Ĝ" unicode="&#x11C;" horiz-adv-x="672" d=" M541,75 Q521,44 479.5,18 Q438,-8 371,-8 Q308,-8 249.5,14.5 Q191,37 146,81.5 Q101,126 74.5,193 Q48,260 48,350 Q48,440 75.5,507 Q103,574 149.5,618.5 Q196,663 256,685.5 Q316,708 381,708 Q439,708 487,691.5 Q535,675 571.5,645.5 Q608,616 633,575.5 Q658,535 672,487 L553,456 Q528,516 486.5,552 Q445,588 381,588 Q339,588 302.5,573.5 Q266,559 238.5,530 Q211,501 195.5,456 Q180,411 180,350 Q180,287 195.5,242 Q211,197 238,168 Q265,139 301,125.5 Q337,112 378,112 Q417,112 445,124 Q473,136 492,155 Q511,174 521.5,197.5 Q532,221 535,245 L405,245 L405,353 L661,353 L661,0 L552,0 M364,948 L398,948 L569,762 L449,762 L381,836 L313,762 L193,762"/> 
            <glyph glyph-name="ĝ" unicode="&#x11D;" horiz-adv-x="503" d=" M81,342 Q81,381 95.5,412.5 Q110,444 135,466 Q160,488 194,500 Q228,512 266,512 Q315,512 359,490 L454,540 L503,458 L431,422 Q451,387 451,342 Q451,302 436.5,271 Q422,240 397,218.5 Q372,197 338,185.5 Q304,174 266,174 Q228,174 193,185 Q169,171 169,147 Q169,110 216,110 L319,110 Q399,110 447.5,72.5 Q496,35 496,-38 Q496,-85 476,-118 Q456,-151 423.5,-172 Q391,-193 350,-202.5 Q309,-212 267,-212 Q219,-212 177,-201.5 Q135,-191 104.5,-170 Q74,-149 56.5,-118 Q39,-87 39,-46 Q39,-15 49.5,10.5 Q60,36 80,54 Q68,68 61,88 Q54,108 54,132 Q54,168 71,194.5 Q88,221 116,238 Q99,258 90,284 Q81,310 81,342 M223,6 Q207,6 193,7 Q179,8 165,10 Q154,-7 154,-36 Q154,-72 186,-90 Q218,-108 267,-108 Q312,-108 342,-94 Q372,-80 372,-46 Q372,-14 349,-4 Q326,6 291,6 M197,342 Q197,311 216.5,292.5 Q236,274 266,274 Q296,274 315.5,292.5 Q335,311 335,342 Q335,374 315.5,393 Q296,412 266,412 Q236,412 216.5,393 Q197,374 197,342 M249,752 L283,752 L454,566 L334,566 L266,640 L198,566 L78,566"/> 
            <glyph glyph-name="Ğ" unicode="&#x11E;" horiz-adv-x="672" d=" M541,75 Q521,44 479.5,18 Q438,-8 371,-8 Q308,-8 249.5,14.5 Q191,37 146,81.5 Q101,126 74.5,193 Q48,260 48,350 Q48,440 75.5,507 Q103,574 149.5,618.5 Q196,663 256,685.5 Q316,708 381,708 Q439,708 487,691.5 Q535,675 571.5,645.5 Q608,616 633,575.5 Q658,535 672,487 L553,456 Q528,516 486.5,552 Q445,588 381,588 Q339,588 302.5,573.5 Q266,559 238.5,530 Q211,501 195.5,456 Q180,411 180,350 Q180,287 195.5,242 Q211,197 238,168 Q265,139 301,125.5 Q337,112 378,112 Q417,112 445,124 Q473,136 492,155 Q511,174 521.5,197.5 Q532,221 535,245 L405,245 L405,353 L661,353 L661,0 L552,0 M353,896 Q353,884 360.5,876 Q368,868 380,868 Q392,868 399.5,876 Q407,884 407,896 L498,896 Q498,874 490,854.5 Q482,835 466.5,820 Q451,805 429,796 Q407,787 380,787 Q353,787 331,796 Q309,805 293.5,820 Q278,835 270,854.5 Q262,874 262,896"/> 
            <glyph glyph-name="ğ" unicode="&#x11F;" horiz-adv-x="503" d=" M81,342 Q81,381 95.5,412.5 Q110,444 135,466 Q160,488 194,500 Q228,512 266,512 Q315,512 359,490 L454,540 L503,458 L431,422 Q451,387 451,342 Q451,302 436.5,271 Q422,240 397,218.5 Q372,197 338,185.5 Q304,174 266,174 Q228,174 193,185 Q169,171 169,147 Q169,110 216,110 L319,110 Q399,110 447.5,72.5 Q496,35 496,-38 Q496,-85 476,-118 Q456,-151 423.5,-172 Q391,-193 350,-202.5 Q309,-212 267,-212 Q219,-212 177,-201.5 Q135,-191 104.5,-170 Q74,-149 56.5,-118 Q39,-87 39,-46 Q39,-15 49.5,10.5 Q60,36 80,54 Q68,68 61,88 Q54,108 54,132 Q54,168 71,194.5 Q88,221 116,238 Q99,258 90,284 Q81,310 81,342 M223,6 Q207,6 193,7 Q179,8 165,10 Q154,-7 154,-36 Q154,-72 186,-90 Q218,-108 267,-108 Q312,-108 342,-94 Q372,-80 372,-46 Q372,-14 349,-4 Q326,6 291,6 M197,342 Q197,311 216.5,292.5 Q236,274 266,274 Q296,274 315.5,292.5 Q335,311 335,342 Q335,374 315.5,393 Q296,412 266,412 Q236,412 216.5,393 Q197,374 197,342 M240,700 Q240,688 247.5,680 Q255,672 267,672 Q279,672 286.5,680 Q294,688 294,700 L385,700 Q385,678 377,658.5 Q369,639 353.5,624 Q338,609 316,600 Q294,591 267,591 Q240,591 218,600 Q196,609 180.5,624 Q165,639 157,658.5 Q149,678 149,700"/> 
            </font>
</defs>
</svg>
